<?xml version="1.0" standalone="no"?>
<!DOCTYPE svg PUBLIC "-//W3C//DTD SVG 1.1//EN" "http://www.w3.org/Graphics/SVG/1.1/DTD/svg11.dtd" >
<svg>
<metadata>
Created by FontForge 20120731 at Thu Jun 15 10:55:02 2017
 By www
Copyright (c) 2015 by Julia Martinez Diana, Antipixel. All rights reserved.
</metadata>
<defs>
<font id="LeOslerW01-RoughRegular" horiz-adv-x="458" >
  <font-face 
    font-family="LeOslerW01-RoughRegular"
    font-weight="400"
    font-stretch="normal"
    units-per-em="1000"
    panose-1="2 0 0 0 0 0 0 0 0 0"
    ascent="800"
    descent="-200"
    x-height="629"
    cap-height="742"
    bbox="-21.381 -353 968.5 1084.67"
    underline-thickness="50"
    underline-position="-125"
    unicode-range="U+0020-2122"
  />
<missing-glyph horiz-adv-x="256" 
 />
    <glyph glyph-name=".notdef" horiz-adv-x="256" 
 />
    <glyph glyph-name=".null" horiz-adv-x="0" 
 />
    <glyph glyph-name="nonmarkingreturn" horiz-adv-x="333" 
 />
    <glyph glyph-name="space" unicode=" " horiz-adv-x="256" 
 />
    <glyph glyph-name="exclam" unicode="!" horiz-adv-x="238" 
d="M22 756q1 0 4.5 0.5t6.5 0.5q8 -2 17 0q5 1 9 0t9 -2q11 -2 21 -1t20 -1q7 -2 9 -6.5t3 -12.5q2 -4 0 -7q-1 -8 -1.5 -16t1.5 -19l3 -6q1 -6 1 -15.5t-1 -14.5q-1 -4 -2.5 -9.5t-0.5 -12.5l3 -6q1 -5 0 -10t0 -10q2 -9 3 -15t-1 -16q-2 -6 -0.5 -14.5t2.5 -13.5
q1 -10 0.5 -21.5t-1 -23.5t-1 -23.5t1.5 -21.5l1.5 -7.5t0.5 -6.5q-2 -4 -2 -7q-1 -2 0 -4.5t2 -4.5q0 -2 -1 -3t-1 -3t2 -6q2 -12 -0.5 -27.5t0.5 -29.5q1 -6 2 -19.5t-1 -22.5q-1 -11 0 -20q1 -5 0.5 -9t-0.5 -8q2 -13 1.5 -24t-0.5 -22q0 -2 2 -5t2 -5t-1.5 -4t-2.5 -5
q0 -2 1 -4t0 -4q0 -4 -3.5 -8t-5.5 -4q-2 -1 -5.5 -0.5t-6.5 0.5q-7 -2 -18.5 -2h-25.5q-11 0 -21.5 -1t-18.5 1t-12.5 4t-6.5 10q-1 5 -0.5 10t0.5 9q3 10 0 23q-1 8 0.5 15.5t-0.5 14.5q0 5 -0.5 6.5t0.5 5.5q2 8 1 18t-1 21v75q0 10 1 19.5t-1 17.5q0 2 -0.5 3t-0.5 2
q-4 21 0.5 43t0.5 42q0 1 -0.5 2t-0.5 3q-1 4 -0.5 8t0.5 8q-2 7 -2 17.5t2 18.5q2 10 1 23.5t-1 27.5v29.5t-2 26.5q-2 8 -0.5 18t0.5 18q-1 4 -1.5 7t1.5 8q2 4 7 5.5t9 2.5zM88 133h7.5t7.5 -1q1 0 1.5 -1t2.5 -1h5q1 -1 1.5 -2t2.5 -2l7 -2q7 -5 12.5 -14t7.5 -19l2 -20
q1 -4 2.5 -6t0.5 -5l-3 -4l-2 -18q-1 -7 -4 -13l-6 -12q-2 -7 -5 -13t-8 -9l-7 -4l-7 -5q-2 -1 -6 0t-6 0q-9 -1 -16 0q-4 2 -8.5 0.5t-8.5 -0.5l-13 4q-8 3 -20.5 11t-17.5 16q-11 14 -12 29q-3 11 0 26q3 19 12 32q7 10 20 17t24 11q3 1 8 2.5t7 1.5q4 1 10 1h9z" />
    <glyph glyph-name="quotedbl" unicode="&#x22;" horiz-adv-x="357" 
d="M74 832q6 1 15 1.5t17 -1t14.5 -4t7.5 -7.5q2 -13 2 -31v-37q0 -15 -1 -30.5t1 -26.5v-10q-1 -3 -0.5 -7t0.5 -7q-4 -20 -3.5 -43t-2.5 -41q-1 -4 -0.5 -8.5t0.5 -6.5q-2 -5 -3.5 -11.5t-2.5 -13.5q-1 -4 -0.5 -7.5t0.5 -7.5l-4 -14q-1 -3 -0.5 -4.5t0.5 -3.5
q-1 1 -3 -1.5t-2 -3.5q-2 -1 -7.5 -2t-9.5 0q-2 0 -3 1t-2 1q-12 2 -27.5 1t-25.5 1q-2 0 -2.5 1t-2.5 1q-8 2 -14.5 0.5t-11.5 3.5q-5 6 -5.5 12t1.5 17q1 4 0.5 8t-0.5 7q2 6 2.5 13t1.5 13q1 4 0 8t0 9l3 5q2 8 1 17t1 18q1 5 0.5 10.5t0.5 11.5q4 21 1 42.5t1 43.5
q1 4 0.5 7.5t-0.5 7.5q2 8 3 15t-1 15q-1 6 -2 11.5t0 10.5q1 4 4 7.5t5 4.5q9 5 26 3.5t28 0.5zM189 832q2 1 9 0.5t12 -1.5q6 -2 13 -3t14 1q7 1 15 0q5 -1 10 0t10 0q5 -2 9 -6.5t5 -9.5q1 -4 0 -7.5t0 -8.5q2 -2 2 -4q2 -6 0.5 -12.5t-0.5 -12.5l3 -6q1 -5 -0.5 -7.5
t-1.5 -7.5q0 -3 1.5 -6.5t1.5 -7.5q2 -9 1 -22t-2 -20q-2 -8 -1 -17t1 -19q0 -21 0.5 -34t0.5 -34q0 -8 1 -16t-1 -13q0 -2 -1.5 -3.5t-2.5 -4.5q-2 -10 -1 -20t-6 -12q-2 -1 -5.5 0t-6.5 0q-2 0 -3 -1t-3 -1q-8 -2 -20 0t-24 0q-11 -2 -19 -2t-17 2q-12 2 -13.5 12t0.5 24
q2 10 0 18.5t0 16.5q1 3 1.5 3t0.5 2q1 4 0 8.5t0 9.5q3 15 1.5 24.5t0.5 25.5q2 5 0.5 10.5t-0.5 10.5q1 4 2.5 13.5t-0.5 15.5q0 1 -2 5q0 2 0.5 5.5t-0.5 6.5q-1 5 -2 8t0 8q2 9 2 24t-2 27q-1 4 0 8.5t0 8.5q0 3 -0.5 6t1.5 7t6.5 5.5t9.5 2.5z" />
    <glyph glyph-name="numbersign" unicode="#" horiz-adv-x="665" 
d="M147 739q2 1 3.5 0.5t5.5 -1.5q8 -2 19 -1.5t23 0.5h23t19 -1q14 -3 9 -27q-1 -5 0 -10.5t0 -9.5q0 -2 -1 -3t-1 -3q-2 -5 -0.5 -8.5t0.5 -8.5q-2 -4 -2 -5q-2 -6 -0.5 -15t0.5 -15q-2 -4 -2 -5q0 -2 1 -3.5t1 -3.5q-2 -4 -2 -5q-2 -7 -2 -19.5t2 -21.5q1 -7 2.5 -15.5
t6.5 -10.5t11.5 -0.5t12.5 0.5q1 0 5 -2q5 -1 11.5 1.5t7.5 4.5q2 2 0.5 5.5t-1.5 7.5q2 4 2 5q1 3 0.5 6t-0.5 6q3 19 2 39.5t2 39.5q2 11 1.5 23.5t7.5 16.5q2 1 9 2.5t11 1.5q2 0 3 -1t3 -1q14 -2 29 -1t29 -1q8 -2 16.5 -1t10.5 -6q2 -4 0.5 -8.5t-0.5 -9.5q1 -3 2.5 -6
l2.5 -5q1 -6 0 -12.5t-2 -11.5q-1 -3 -0.5 -6t0.5 -5q-1 -2 -2 -3t-1 -3t1 -3t2 -3q0 -3 -1 -5.5t-2 -5.5q-1 -5 -1 -14t1 -14l2.5 -12.5t3.5 -9.5t9.5 -3t12.5 0q2 0 3 1t3 1q8 2 20 2t18 -2q2 0 3 -1t3 -1q11 -2 23 -1t26 -1q22 -3 19 -29q-2 -2 -2 -5q0 -2 1 -3.5t1 -3.5
q-1 -2 -2.5 -6.5t-2.5 -9.5t-1 -12.5t1 -12.5q2 -6 2 -14.5t-5 -11.5q-1 0 -4 -1t-5 -1q-10 -2 -20.5 1t-18.5 1q-1 0 -2 -1t-2 -1q-5 -1 -9.5 0t-8.5 0l-10 -2t-10 0t-6.5 1t-6.5 -1q-3 -1 -7 0t-6 0t-2 -2.5t-2 -1.5q-5 -2 -8.5 -1t-4.5 -6q-2 -6 -1 -13t1 -15v-17.5
t1 -14.5q2 -8 0.5 -15t1.5 -11q8 -8 25.5 -7.5t33.5 0.5h28t24 -2q8 -2 14 -2t8 -8q1 -2 0.5 -5.5t-0.5 -5.5q1 -5 1.5 -10t-1.5 -13q0 -1 -2 -5q-1 -4 0 -8t0 -9q0 -1 -2 -5q-1 -4 -0.5 -10t0.5 -12t-1.5 -11t-4.5 -6q-2 -1 -5 -0.5t-5 0.5l-6 -3q-16 -3 -35.5 -1t-36.5 -1
q-2 0 -6 -2q-4 0 -7.5 1t-7.5 -1q-2 0 -5.5 -4t-4.5 -7q0 -2 0.5 -5t-0.5 -5q-3 -17 -2.5 -44.5t0.5 -50.5v-68q0 -5 1 -12t-1 -11q0 -1 -3.5 -4.5t-5.5 -4.5q-4 -1 -8 0t-8 0q-1 0 -5 -2q-12 -2 -26.5 -1t-27.5 -1q-4 0 -8.5 -2t-11.5 0q-2 0 -2.5 1t-2.5 1q-5 2 -8 3t-5 7
q-2 8 -1 19t1 21v80q0 11 1 21.5t-1 18.5q0 2 -1 3t-1 3q0 3 1.5 6t0.5 8q0 3 -2 10t-4 9q-2 0 -6.5 0.5t-7.5 0.5q-5 2 -8.5 0.5t-6.5 -1.5q-8 -2 -13 -1t-10 -4t-4.5 -20.5t0.5 -28.5v-80q0 -11 1 -21t-1 -19q-2 -8 -4 -8.5l-10 -2.5q-2 0 -3 -1t-2 -1q-4 -1 -7 -0.5
t-6 0.5q-4 -2 -5 -2q-5 -1 -8 0.5t-8 1.5q-2 0 -3 -1t-3 -1q-8 -2 -23 -2t-23 2q-6 0 -9 3q-6 4 -6 19t2 23q2 11 1 25.5t-1 29.5q0 20 0.5 36.5t-2.5 30.5l-5 10q-3 2 -11.5 1t-14.5 -1q-10 0 -17.5 -0.5t-13.5 -1.5q-7 -2 -15 -1t-13 3q-8 3 -9 14.5t-3 19.5q-2 9 0 20
t0 21q-2 13 0.5 26t13.5 15q12 2 25.5 1t26.5 1l4 2q7 1 16 0.5t11 6.5q2 3 1 10.5t-1 14.5v16t-1 13t-0.5 10t0.5 9q-2 4 -2 5q-2 6 -1 11.5t-5 7.5q-3 1 -6 0t-7 -2q-14 -2 -35 0t-36 0q-11 -2 -17.5 -0.5t-8.5 13.5q-2 14 -1 30t-1 30q-2 13 -1 26t13 15q3 1 7.5 0t8.5 0
q1 0 2 1t3 1q5 2 9.5 0.5t9.5 -0.5q2 2 5 2q14 3 30.5 0.5t23.5 3.5q2 2 4.5 8t2.5 11l-1.5 3t-0.5 3q-2 8 -1 17t1 19v22t2 18q2 10 0 21.5t0 21.5q0 1 2 5q1 5 0 9t0 9q1 10 3.5 21t11.5 13q2 0 4 0.5t3 0.5zM249 425q-1 -1 0 -3t-1 -3q0 -2 -1.5 -2t-1.5 -1
q-2 -2 -1 -8.5t1 -12.5q0 -5 -0.5 -10.5t0.5 -9.5q1 -8 0.5 -13.5t1.5 -11.5q0 -1 1 -2t1 -2q2 -7 2.5 -14t4.5 -9q1 -1 7.5 -2t8.5 0q6 2 14 2t13 2q8 5 10 18q2 6 2 16t-2 15l-4 14q-2 8 0 15.5t0 14.5q0 2 -2.5 7t-4.5 6t-8.5 0.5t-10.5 -0.5q-6 0 -11.5 0.5t-8.5 -1.5
q-2 0 -5.5 -1.5t-4.5 -3.5z" />
    <glyph glyph-name="dollar" unicode="$" horiz-adv-x="499" 
d="M204 862q3 1 10.5 1h15.5t16 -0.5t11 -1.5q6 -2 12.5 -1t10.5 -1q8 -4 6.5 -9t0.5 -15l3 -5q0 -1 -1 -1.5t-1 -2.5q0 -4 1.5 -7.5t1.5 -6.5q1 -3 -1 -6.5t-2 -7.5q0 -2 1.5 -4.5t1.5 -4.5q0 -1 -0.5 -1.5t-0.5 -2.5q0 -1 1 -4t5 -5q8 -6 18 -9.5t18 -9.5l11 -9
q11 -8 21 -17.5t18 -20.5q4 -5 6.5 -12t6.5 -13q2 -4 5 -8.5t4 -7.5q1 -2 0.5 -3t-0.5 -2q1 -2 2.5 -2.5t1.5 -2.5q1 -2 0.5 -3.5t0.5 -3.5q1 -5 3.5 -9.5t3.5 -9.5q1 -2 0.5 -4t-0.5 -4q1 -4 2.5 -7t2.5 -6q0 -5 2 -11q1 -5 -0.5 -13t0.5 -15q0 -2 1.5 -9t-0.5 -10
q-2 -9 -16.5 -9.5t-25.5 -2.5q-1 0 -3 -2q-3 -1 -7.5 0t-8.5 0q-7 -2 -24.5 -3t-26.5 1q-7 2 -7.5 10t-2.5 14q-2 8 -5 18t-5 18q0 2 0.5 3t-0.5 3q-1 6 -6 14t-10 15q-5 8 -13 12l-18 9q-7 3 -12.5 6.5t-17.5 0.5q-2 0 -5 -2.5t-5 -2.5q-10 -3 -16.5 -8t-13.5 -13
q-12 -10 -20 -24q-4 -5 -8.5 -14t-6.5 -14t-2 -11.5t-1 -10.5q-2 -5 -1 -14t3 -14q4 -18 12 -33.5t18 -29.5q3 -5 7.5 -9t8.5 -9q5 -7 12 -15.5t13 -12.5q3 0 4 -1q3 -2 5 -5.5t5 -5.5q5 -2 9 -6t9 -8l21 -12q2 -2 2.5 -3t2.5 -2q2 -2 4.5 -2.5t4.5 -2.5q2 -1 2.5 -2.5
t1.5 -2.5l26 -17l4 -5q8 -4 15 -10t15 -11q9 -7 16 -17l14 -20t13 -19t9 -22q1 -5 3.5 -9.5t4.5 -9.5q0 -1 -0.5 -3.5t0.5 -4.5l3 -19q2 -10 2 -14q1 -3 -0.5 -5t-1.5 -5q0 -2 2 -7t0 -10q-1 -4 0 -9q1 -2 0 -3.5t-2 -4.5q-1 -7 -0.5 -12t-0.5 -12q-2 -5 -3.5 -9t-2.5 -9
q-1 -2 0 -4t0 -4t-2.5 -3t-1.5 -3q-1 -1 -0.5 -2.5t0.5 -2.5l-4 -10l-11 -21q-4 -5 -10 -10.5t-11 -11.5q-8 -12 -20 -19.5t-26 -14.5l-13 -8q-6 -2 -11 -3t-10 -3q-2 -1 -7 -4t-6 -5t-0.5 -4.5t-0.5 -5.5q-1 -7 -1.5 -17t-0.5 -23q0 -9 -0.5 -18.5t0.5 -16.5
q2 -7 1.5 -19.5t-6.5 -15.5h-8q-2 0 -2.5 -1t-1.5 -1q-6 -2 -13.5 0t-14.5 0q-14 -2 -27 -2t-23 2h-7q-4 1 -6.5 7.5t-3.5 15t-1 18t1 15.5q2 8 3 15.5t-1 14.5q0 2 -1.5 7t-0.5 9q1 3 1.5 5.5t-1.5 6.5q-1 2 -5 5.5t-6 3.5q-3 2 -6 1t-6 -1q-8 2 -15.5 6t-13.5 6
q-19 8 -36 18.5t-26 25.5q-2 2 -1.5 3.5t-1.5 3.5q-4 6 -8 12.5t-6 11.5q-1 2 -0.5 4.5t-0.5 4.5q-2 3 -3.5 6t-3.5 8v4q0 2 -1.5 2.5t-1.5 2.5q-2 5 -1.5 10t-0.5 10q-1 4 -2.5 7.5t-2.5 6.5q0 2 0.5 5.5t-0.5 6.5q0 2 -2 4q-1 4 0 8t0 8q-2 13 -2.5 31t2.5 26
q5 10 19.5 8.5t28.5 1.5q7 1 14 0q6 -2 11.5 -0.5t10.5 0.5l4 -2q2 -1 6 -0.5t6 0.5q6 -2 10.5 -7.5t2.5 -16.5q-1 -3 -2 -4.5t-1 -3.5l3 -5q1 -3 0 -6.5t0 -6.5q0 -4 2 -14q0 -3 1.5 -5.5t2.5 -4.5q1 -5 1 -9t2 -9q5 -12 14.5 -20.5t21.5 -14.5l14 -7q2 0 5 0.5t5 -0.5
q17 -3 33 3q13 5 26 10.5t21 16.5q5 7 9.5 15.5t6.5 17.5q2 8 2 19.5t-2 18.5q-3 12 -10.5 21t-15.5 17q-5 5 -9.5 9t-9.5 7q-3 2 -6.5 5.5l-5.5 5.5q-5 2 -8.5 5.5t-7.5 6.5l-51 32l-16 12q-2 2 -3.5 4t-3.5 3l-13 9q-2 2 -4 4.5t-4 4.5q-15 10 -24 24q-2 3 -5 5t-5 4
t-2 4.5t-2 4.5q-5 8 -12 16.5t-13 18.5q-5 7 -9 14t-6 15q-1 3 -2.5 6l-3.5 7t-2 8t-2 7l-4 10t-4 11q-1 8 -0.5 13t-1.5 11q-4 19 -5 40t3 40l6 30q2 6 5 11.5t5 11.5q3 8 6 15t7 13q4 7 8.5 14t9.5 14t10 12.5t12 11.5q14 14 31 26t40 20q7 3 17 7t12 12q3 14 0.5 29
t1.5 26q2 7 11 8.5t14 2.5z" />
    <glyph glyph-name="percent" unicode="%" horiz-adv-x="729" 
d="M441 772q7 2 14.5 -2t12.5 -6l10 -2q5 -2 10.5 -5t11.5 -5l9 -2q6 -2 17.5 -7.5t13.5 -13.5q2 -7 0 -13t-3 -11q-2 -7 -6 -14t-6 -14q-3 -7 -4.5 -13.5t-3.5 -14.5q-2 -6 -6 -11.5t-6 -10.5q-2 -4 -4 -12q-5 -16 -12 -31t-12 -30q-3 -8 -6.5 -14.5t-5.5 -15.5
q-2 -8 -6.5 -15t-7.5 -15l-2 -9q-2 -8 -5.5 -14t-6.5 -14q-3 -11 -8 -19t-8 -19q0 -2 -1.5 -3t-2.5 -3q-3 -13 -9 -23.5t-11 -22.5l-13 -38q-3 -7 -7.5 -13.5t-6.5 -13.5l-12 -31q-4 -11 -10 -20t-8 -19q-2 -9 -6.5 -16t-7.5 -16l-2 -9q-2 -2 -3.5 -4t-2.5 -4v-5
q-2 -7 -6.5 -13.5t-6.5 -13.5l-5 -14q-3 -8 -7.5 -16.5t-8.5 -17.5q-5 -12 -10 -24.5t-10 -25.5q-4 -13 -10 -24t-11 -25q-2 -3 -3.5 -5.5t-2.5 -4.5l-2 -10q-1 -2 -2.5 -3t-1.5 -3q-3 -7 -6 -16t-8 -11q-3 -2 -9.5 -1.5t-11.5 1.5t-10.5 4t-11.5 4q-10 2 -23 7t-25 9
q-7 2 -10.5 4.5t-4.5 9.5q-2 9 2 15.5t6 12.5l10 29q0 2 0.5 3l1.5 3q5 20 14.5 38t16.5 38q4 10 9 19t7 18q5 14 12 27t12 27v3q2 6 6 12t6 13v3q4 10 9.5 20t10.5 21l2 9q3 8 7 15.5t7 15.5q4 14 10.5 27t11.5 27q1 4 2.5 6.5t2.5 7.5q2 7 5 12t5 12q2 5 4 8.5t4 7.5
q1 2 0.5 2.5t-0.5 1.5q2 7 5 11.5t5 12.5q2 9 7.5 18t8.5 18q5 12 10 23.5t10 24.5q2 4 2 7.5t2 7.5q2 7 6 12.5t6 12.5q2 8 6 14.5t6 12.5l2 10q2 5 6 11t6 13q3 11 8 21t10 21q2 5 3.5 11t3.5 12q1 2 2.5 3t2.5 3t0.5 4.5t1.5 4.5q2 8 7 18t9 15q1 2 4.5 4t5.5 3zM511 370
q3 1 5.5 0.5t5.5 -1.5q5 -2 11.5 -0.5t12.5 0.5l14 -4q5 -1 10 -0.5t10 -1.5l8 -4q14 -6 28.5 -15t23.5 -21q4 -7 10 -16.5t8 -18.5q0 -4 -0.5 -7t0.5 -6q0 -2 1.5 -3t2.5 -3q2 -5 1 -13t-1 -16t1 -15.5t-1 -12.5q0 -2 -1 -2.5t-1 -2.5q-1 -3 -0.5 -6.5t0.5 -7.5
q-2 -8 -5.5 -14.5t-6.5 -14.5q-8 -16 -21.5 -29t-28.5 -23q-12 -7 -24 -10q-7 -2 -14 -6t-15 -6t-16 -1t-16 -1q-2 0 -2.5 -1t-2.5 -1q-5 -1 -7 0t-5 2q-9 2 -17.5 1.5t-16.5 2.5q-4 2 -8.5 4t-8.5 4l-9 8q-10 5 -17.5 17t-13.5 21q-2 2 -2 5q-7 15 -8 26q-1 3 -0.5 6.5
t0.5 5.5q-2 8 -3 26.5t1 29.5t4.5 24t5.5 25l2.5 7.5t3.5 7.5q6 9 13.5 20t17.5 17q2 1 4 3t5 4q2 2 5 2.5t5 1.5q5 3 8 5t9 3q5 1 9 0.5t9 1.5zM137 666q4 1 6.5 0.5t5.5 -1.5t6 -0.5t6 0.5q1 0 1.5 -1t2.5 -1q3 -1 6.5 0t7.5 0l27 -8q17 -7 31.5 -25.5t21.5 -35.5l2 -9
q1 -4 2.5 -7t2.5 -6q2 -5 1.5 -9.5t1.5 -11.5q0 -1 1 -2t1 -2q0 -3 -1 -3.5t-1 -2.5q0 -1 2 -3q1 -5 0.5 -13t-0.5 -16q0 -7 0.5 -14.5t-0.5 -12.5l-2 -12q-2 -7 -5 -13t-5 -12q-5 -11 -12 -22.5t-17 -18.5q-4 -3 -8.5 -5t-9.5 -5q-2 -2 -6.5 -4.5t-7.5 -3.5t-6 0t-7 0
q-1 0 -2 -1t-2 -1q-7 -2 -22.5 -2t-22.5 2q-2 0 -2.5 1t-2.5 1q-4 1 -7.5 0t-6.5 0q-4 1 -7.5 2.5t-7.5 3.5h-4q-5 2 -10 5t-10 5t-10 4.5t-10 5.5q-6 5 -10.5 9t-10.5 10q-8 8 -14.5 15.5t-11.5 21.5q-1 2 -2 4.5t-1 4.5q-1 2 -0.5 3t0.5 3q-1 2 -1.5 2.5t-1.5 2.5
q-1 5 -0.5 7.5t-1.5 7.5q-2 11 -3 20.5t1 19.5q2 5 0.5 9t-0.5 9l3.5 10.5t3.5 11.5q1 4 5 12t7 13q5 8 10.5 15.5t13.5 13.5l12 6q5 4 9.5 5.5t12.5 4.5q5 2 9.5 4.5t9.5 3.5t10 0.5t12 1.5q1 0 1.5 1t1.5 1q4 1 8.5 1h6.5zM520 271l-15 -7.5t-12 -10.5q-1 -2 -1 -4.5
t-1 -4.5q-2 -6 -4 -13.5t0 -15.5q2 -7 7 -15t10 -10q8 -2 16.5 0t12.5 4q9 6 16.5 14.5t9.5 19.5q3 15 -3 22.5t-14 12.5q-2 2 -3.5 4.5t-3.5 3.5q-4 1 -8 1h-6zM122 560q-13 -7 -16 -21l-2 -6t0 -6q3 -15 12 -24.5t22 -14.5q4 -2 8.5 -4t10.5 0q7 2 12.5 10.5t6.5 13.5
q3 13 0 29q0 2 -1.5 4t-3.5 5q-3 3 -6 7.5t-7 6.5q-5 3 -11 6t-14 0q-2 -1 -5.5 -2.5t-5.5 -3.5z" />
    <glyph glyph-name="ampersand" unicode="&#x26;" horiz-adv-x="592" 
d="M195 760q5 1 11.5 -1t11.5 -1t7 1t7 -1q3 -1 6.5 0t5.5 0q9 -2 20.5 -4t19.5 -4q13 -3 25 -9t23 -13q3 -2 9 -8t9 -10q5 -8 10 -18.5t10 -20.5q2 -5 4.5 -10.5t3.5 -9.5q0 -1 -0.5 -1t-0.5 -1v-1q0 -2 1 -2.5t2 -2.5q1 -3 0.5 -7t0.5 -9l3 -12q1 -3 2 -5.5t2 -4.5
q0 -1 -1 -2.5t-1 -2.5q0 -8 4 -22t-3 -21q-1 -1 -3 -2l-4 -2q-3 -1 -6.5 0t-5.5 0l-16 -4q-6 -2 -12.5 -1.5t-11.5 -0.5l-19 -4q-11 -2 -19 0.5t-10 10.5q-2 5 -1.5 12t-0.5 13l-10 34q-2 6 -5 12t-5 8t-6.5 4.5t-6.5 4.5q-5 3 -9 2.5t-12 1.5q-2 0 -3 1t-3 1t-2.5 -1
t-2.5 -1q-2 -1 -5.5 -0.5t-5.5 0.5q-6 -2 -16.5 -8.5t-14.5 -11.5q-10 -14 -16 -31q-2 -5 -4 -13t0 -16q1 -5 0 -9q-2 -9 1.5 -17t5.5 -15q0 -2 -0.5 -3.5t0.5 -3.5q0 -5 1.5 -9.5t3.5 -9.5q3 -8 6.5 -14.5t5.5 -14.5q2 -5 4 -9t4 -10q2 -4 3.5 -5t2.5 -6q1 -3 6 -8
q2 -5 4.5 -10.5t5.5 -10.5q14 -20 27 -41t27 -42l12 -16q5 -6 10.5 -12t10.5 -13q2 -3 2.5 -6t2.5 -5q3 -3 9.5 -8.5t9.5 -10.5q1 -1 1 -3.5t2 -2.5q1 -1 3.5 2t2.5 4q2 5 1 11.5t1 14.5q2 6 3 12.5t-1 11.5q-1 1 -1 2t-0.5 1.5t-0.5 1.5l-2 4q-4 2 -10.5 0.5t-10.5 -0.5
q-5 1 -7 5t-2.5 9.5t-0.5 11t-1 10.5q-2 10 0 20q1 3 1 10t-1 12q0 2 -0.5 4t0.5 9q2 8 6.5 10t13.5 4q4 1 11 2t12 0q2 -2 4 -2q3 -1 5.5 0t7.5 2q6 1 12 -0.5t14 0.5q6 1 17 1.5t22 0.5h21.5t16.5 -2q9 -2 17 -1t12 -6q2 -5 1.5 -13t-1.5 -13q-2 -5 -0.5 -11.5t0.5 -12.5
q-2 -8 -2 -15.5t-2 -13.5v-8q-1 -3 -5 -7l-6 -6q-4 -1 -8 0.5t-8 -0.5q-2 -1 -4 -7t-2 -9q0 -1 0.5 -2t0.5 -3l-2 -4q-1 -5 -2 -13t-1 -13q0 -2 0.5 -3t0.5 -2q0 -3 -1.5 -5.5t-2.5 -5.5q-2 -6 -1 -13.5t-1 -14.5q0 -1 -2 -3q-2 -7 -2.5 -15t-2.5 -14l-10 -34
q-3 -6 -6.5 -11t0.5 -11q5 -8 16.5 -16t16.5 -16q0 -3 1 -4q2 -2 4.5 -2.5t4.5 -2.5q5 -4 10 -9t11 -10q4 -3 7.5 -7t6.5 -7q5 -5 11 -10.5t6 -11.5q0 -2 -3.5 -7.5t-5.5 -8.5q-3 -5 -8 -9t-9 -6q-5 -3 -10.5 -10t-12.5 -12l-14 -9q-2 -2 -3 -3.5t-3 -2.5q-3 -1 -9.5 -1
t-10.5 1q-3 1 -9 6t-11 8q-3 2 -5 4t-5 4q-5 2 -9 7t-7 9q-5 4 -8.5 8.5t-6.5 6.5q-4 2 -7.5 5.5t-7.5 3.5q-2 -1 -4.5 -3t-5.5 -4l-5 -4q-8 -6 -17.5 -12.5t-20.5 -10.5q-11 -5 -23 -6q-4 -2 -7.5 -3.5t-7.5 -2.5q-5 -1 -8 0t-7 0q-2 -2 -3 -2q-11 -2 -26 -1t-26 -1
q-1 0 -2 -1t-3 -1q-1 0 -2 1t-2 1q-8 2 -19 1t-19 1q-2 1 -7.5 1.5t-8.5 2.5q-9 3 -19.5 6t-18.5 8q-2 2 -5 3t-5 3q-2 1 -3 2.5t-3 2.5q-5 4 -11 8t-10 9q-11 15 -20 30.5t-16 32.5q-4 12 -7 30l-3 4q-1 5 -0.5 11t-1.5 13q-2 8 -3.5 24.5t0.5 25.5q0 1 0.5 1.5t0.5 2.5
q2 5 0.5 10t-0.5 10q2 9 4 20t5 21l3 14q2 9 6 17.5t6 17.5l8 16l22 34q4 5 11.5 12t8.5 15q0 3 -2 6.5t-4 8.5q-2 8 -7 14.5t-7 12.5t-4 11.5t-4 12.5q-2 4 -2 7.5t-2 8.5l-4 12l-2 18q-2 14 -3.5 35t1.5 35q2 5 0.5 10t-0.5 10q1 2 1.5 2t0.5 2q2 5 1.5 10.5t0.5 11.5
q1 4 3 7.5t3 8.5q4 18 14 32q4 6 6 12.5t6 11.5q9 15 25 28t34 21q5 3 9.5 4.5t11.5 3.5q5 2 10 4.5t11 3.5q6 2 14 2t13 2zM136 266q-2 -2 -2.5 -6t-2.5 -8q-1 -3 -2.5 -4.5t-2.5 -3.5q-2 -4 -1.5 -7.5t-0.5 -7.5q-1 -5 -3 -9t-3 -9q-2 -7 -3 -14.5t1 -14.5q0 -2 0.5 -2
t1.5 -2q1 -4 -0.5 -9.5t0.5 -10.5q0 -4 2 -7t4 -7q3 -8 8 -18t12 -13q9 -5 18.5 -10.5t18.5 -7.5q8 -2 20.5 -1t18.5 3q10 2 24.5 9t16.5 16t-3 12.5t-8 8.5q-1 0 -0.5 1t-0.5 2q-3 5 -8 10t-9 11l-23 31q-3 4 -6 6.5t-5 6.5q-8 11 -16.5 21.5t-16.5 21.5q-3 5 -8 12t-9 9
q-5 0 -6 -1q-1 0 -3.5 -3t-2.5 -5z" />
    <glyph glyph-name="quotesingle" unicode="'" horiz-adv-x="209" 
d="M74 831q4 1 11 1t14.5 -0.5t14 -2t9.5 -2.5q4 -2 4.5 -8.5t2.5 -11.5q1 -6 0.5 -15.5t-0.5 -18.5v-35v-39t-2 -34q-2 -9 -0.5 -18t0.5 -16q-2 -4 -2 -5q-1 -4 -0.5 -7.5t0.5 -7.5q-2 -4 -2 -6q0 -4 1.5 -6.5t0.5 -7.5q-2 -2 -2 -5q-1 -3 0 -6.5t0 -8.5l-3 -5
q-1 -4 0 -7.5t0 -8.5q0 -2 -1.5 -3.5t-1.5 -3.5q-1 -3 -0.5 -5.5t0.5 -6.5q-2 -2 -2 -4q-2 -4 -1.5 -9.5t-0.5 -7.5l-4 -4q-4 -4 -7 -4q-5 -1 -8.5 0.5t-5.5 2.5q-12 2 -28 1t-29 1q-2 0 -4 2q-8 2 -15 0.5t-11 3.5q-2 2 -4 9t0 12q0 2 0.5 2.5t0.5 2.5q2 9 1.5 19t0.5 18
q2 2 2 4q1 3 0 7.5t0 7.5l3 6q2 8 1 17t1 18q0 1 0.5 2t0.5 3q2 4 0.5 8t-0.5 9q4 20 0.5 41.5t-0.5 39.5l2 4q3 15 0.5 34t-0.5 33q2 6 4 11t8 6q10 2 24.5 1.5t26.5 2.5z" />
    <glyph glyph-name="parenleft" unicode="(" horiz-adv-x="290" 
d="M113 771q11 4 20 0t15 -6q2 -1 4.5 -1t4.5 -1q9 -3 20 -6.5t21 -7.5q5 -2 12.5 -7.5t5.5 -13.5l-2 -8q-2 -5 -6 -9.5t-6 -10.5v-4q-2 -7 -6.5 -13.5t-7.5 -14.5v-3q-2 -5 -4 -8t-4 -7l-4 -16q-1 -4 -3.5 -7.5t-4.5 -8.5l-6 -18l-6 -23q-1 -5 -3.5 -11t-3.5 -11l-7 -27
q-1 -6 -3.5 -11.5t-3.5 -11.5q-1 -2 -0.5 -4t0.5 -3l-3 -4q-1 -6 -0.5 -11t-1.5 -11q0 -2 -1.5 -4.5t-1.5 -4.5q-1 -2 -0.5 -4t0.5 -4q-2 -7 -4 -14.5t-2 -12.5q0 -1 1 -2t1 -2q0 -2 -1 -2.5t-2 -2.5q-1 -4 -0.5 -10t-1.5 -11q0 -1 -0.5 -1t-0.5 -1q-3 -8 -1.5 -22.5
t1.5 -25.5q0 -13 -1 -25.5t1 -20.5q1 -3 2.5 -10t0.5 -10q0 -4 -0.5 -7.5t0.5 -9.5q1 -4 2.5 -7.5t2.5 -8.5t0.5 -11.5t1.5 -11.5q0 -2 0.5 -4.5t0.5 -6.5q2 -5 4 -8.5t3 -7.5l5 -30q1 -3 2 -7t2 -9l5 -14q2 -11 7.5 -22t9.5 -22q2 -8 4.5 -15t5.5 -14q3 -8 7 -15.5t7 -15.5
t6.5 -14.5t5.5 -13.5q3 -13 -8 -18q-4 -2 -9 -5.5t-10 -5.5l-12 -4t-11 -4l-24 -8q-4 -2 -10.5 -4t-15.5 0q-8 2 -11 10t-7 15q-5 7 -9 14t-7 15q-4 10 -10 21t-10 20q-2 7 -3.5 13.5t-4.5 13.5q-2 5 -3 9t-3 11q-1 3 -3 7t-3 7q0 1 0.5 3.5t-0.5 3.5q-2 7 -5 14.5t-5 14.5
l-8 44q0 2 -2 4q0 2 0.5 4t-0.5 4l-3 24l-3 4q-1 5 0.5 11t-0.5 11q0 2 -0.5 2t-1.5 2q-2 5 0 10t0 10q0 4 -2 14q0 3 -0.5 3.5t0.5 4.5q1 3 1.5 12.5t-1.5 15.5q0 5 -2 13q0 2 -0.5 2.5t-0.5 1.5q0 2 1.5 5.5t1.5 6.5q2 8 0 18t0 20l2 4q2 5 0.5 11.5t-0.5 11.5q2 0 2 2
q2 5 0.5 10t-0.5 11l3 4q1 5 0.5 11t1.5 11l3 24q1 5 3 9t4 9q1 6 1 12.5t2 11.5q1 2 1 4t1 5q2 8 5 14.5t5 13.5q2 9 5 19.5t7 20.5q3 6 4 11l4 10t4 12q4 12 9.5 25.5t10.5 25.5l2 10q4 10 11 22.5t12 23.5q3 5 5 9t7 6z" />
    <glyph glyph-name="parenright" unicode=")" horiz-adv-x="286" 
d="M80 784q4 1 11 1t11 -2q8 -4 16.5 -19t16.5 -28q5 -8 11 -17t9 -19q2 -2 1.5 -4.5t0.5 -4.5q4 -11 9 -20t7 -19l8 -34q2 -9 5 -18.5t5 -19.5q1 -2 0 -5.5t0 -6.5l4 -21q1 -2 2.5 -4.5t1.5 -4.5q2 -5 0.5 -10t-0.5 -10q2 -2 2 -3q2 -6 1.5 -11.5t0.5 -10.5q1 -3 2 -4.5
t0 -3.5q-1 -6 0 -16q0 -1 1 -1.5t1 -1.5q2 -8 0 -16.5t0 -17.5q0 -2 1 -2.5t1 -1.5q1 -6 -0.5 -12.5t0.5 -11.5q0 -2 1 -2.5t1 -2.5q2 -4 0.5 -6t-2.5 -6q-1 -2 -0.5 -5t0.5 -5q-1 -4 -1 -5t1 -6q1 -4 1 -12t-1 -13q-2 -14 -1 -26.5t-1 -22.5q0 -2 -1 -2.5t-1 -1.5
q-1 -3 0 -6t0 -6q-2 -11 -2.5 -21.5t-3.5 -23.5q0 -2 -1 -2.5t-1 -2.5q-1 -2 -0.5 -4t0.5 -4q0 -1 -1 -1.5t-1 -2.5q-2 -5 -0.5 -10.5t0.5 -10.5t-3 -8.5t-3 -7.5q-1 -5 -0.5 -9.5t-1.5 -9.5q0 -2 -1 -2.5t-1 -2.5q-1 -2 -0.5 -5t0.5 -5q-1 -5 -3 -8.5t-3 -7.5
q0 -1 0.5 -3.5t-0.5 -4.5q0 -2 -1.5 -5t-2.5 -7q-3 -20 -8 -37.5t-12 -37.5q-1 -2 -0.5 -5.5t-0.5 -6.5q-2 -5 -5 -11.5t-5 -11.5q-2 -6 -3.5 -11.5t-3.5 -10.5q-2 -7 -7 -15t-10 -10q-2 -1 -7 -1t-8 1q-8 2 -16 3t-16 3q-2 1 -5 0t-6 0q-4 1 -7.5 3t-6.5 3q-8 2 -16.5 3
t-13.5 5q-2 1 -4 4.5t-1 9.5q2 7 4.5 12t4.5 13q2 11 7.5 22t7.5 22q2 8 4 14t4 13l2 12l4 9l2 13q1 2 2.5 4.5t1.5 4.5q1 2 0.5 3.5t-0.5 3.5q1 5 3 8.5t3 8.5v6q1 5 3 10t3 10q2 9 3 17t3 16q1 5 0.5 11t1.5 11l4 16q1 5 0 10.5t0 11.5l4 12q1 3 0 6t0 6t2 10.5t0 11.5
q-1 0 -1 1q-1 1 -1 2q0 2 1.5 5t2.5 7t0 7.5t0 5.5q1 5 2 15t0 18q-3 14 -2.5 28t-1.5 25q-2 5 -0.5 10.5t0.5 10.5q0 1 -1 1.5t-1 1.5q-2 6 0 12.5t0 11.5l-6 39q-4 17 -7.5 36.5t-8.5 36.5q-4 14 -8.5 29t-9.5 28q-4 11 -8.5 20t-7.5 20q-2 7 -7 13t-7 14v3q-3 8 -6.5 14
t-5.5 15q0 2 -1 2.5t0 2.5q0 7 8.5 11t14.5 7q5 3 11 5.5t12 4.5q9 3 16.5 5t15.5 4z" />
    <glyph glyph-name="asterisk" unicode="*" horiz-adv-x="477" 
d="M199 853q4 1 9 0t8 -2q6 -2 15 -1t15 -1q3 -1 6.5 -3t4.5 -4q2 -4 1 -10.5t1 -12.5q0 -2 1.5 -6.5t-0.5 -8.5l-1 -2q0 -2 1 -3.5t0 -3.5q0 -2 -1.5 -4.5t0.5 -5.5l3 -18q2 -4 3 -6.5t6 -0.5q4 0 12.5 4.5t13.5 7.5q4 2 7.5 5t7.5 5q8 2 15 6t14 5q9 2 14 -2t9 -9
q2 -4 6 -7t7 -8t5.5 -10t5.5 -10q5 -8 10.5 -16t3.5 -22q-4 -10 -14 -14q-5 -3 -10 -7t-12 -7l-31 -17q-5 -3 -10 -5t-8 -4q-6 -4 -18.5 -11t-12.5 -15q0 -5 5.5 -12.5t8.5 -12.5q4 -6 7 -13t7 -13q2 -2 3.5 -3t2.5 -3l6 -12q1 -2 2.5 -2.5t1.5 -1.5q2 -5 4 -9.5t5 -8.5
q5 -8 8 -14.5t5 -14.5q4 -15 -5.5 -21t-23.5 -11q-8 -4 -18.5 -7.5t-18.5 -6.5q-5 -2 -13 -5.5t-16 -0.5q-2 0 -4 2.5t-3 4.5q-11 14 -19 32.5t-19 34.5q-2 3 -5 5.5t-5 4.5q-1 2 -2 5t-3 4q-2 0 -8 -5.5t-8 -8.5l-8 -10q-3 -5 -7.5 -10t-7.5 -10l-5 -10q-1 -2 -2 -2t-2 -2
q-3 -5 -5 -11.5t-5 -11.5q-2 -2 -11 -2.5t-15 0.5q-7 2 -13 6t-13 6q-3 1 -6 2.5t-5 3.5l-24 8q-9 3 -13.5 10t-1.5 18q2 5 3.5 8.5t2.5 9.5q0 1 1 2.5t2 3.5q3 5 5.5 11t5.5 11q4 2 6 4t2 4.5t2 4.5q5 7 10.5 11.5t9.5 9.5v4q2 4 5.5 8t6 8t2 8t-6.5 9q-5 4 -13 7.5
t-14 7.5t-12 6t-11 5q-13 8 -29 19t-19 28q-2 5 -1 8t2 7q2 5 5.5 9t6.5 9q2 2 2 3.5t1 3.5q2 3 6.5 7t8.5 8q8 8 14.5 14t17.5 10q2 1 3.5 -0.5t2.5 -1.5q8 -2 14.5 -6t14.5 -9q1 -1 1.5 -2.5t2.5 -2.5t3.5 -1t3.5 -2q5 -2 8.5 -5.5t8.5 -5.5q2 -1 3.5 -1t3.5 -2
q3 -2 5.5 -4.5t5.5 4.5q2 3 4 13t0 17q-1 4 -1.5 11t-2.5 13q-1 4 -2 7t0 7q2 2 2 3q2 5 1 9t1 9t10.5 8t15.5 3q4 0 6.5 -1.5t6.5 -0.5q10 1 18 4z" />
    <glyph glyph-name="plus" unicode="+" horiz-adv-x="571" 
d="M218 573q5 1 11 0.5t13 -1.5q8 -2 15.5 -0.5t14.5 0.5q4 -2 5 -2q8 -2 16 -1.5t10 -6.5q2 -6 1 -18.5t1 -23.5q1 -2 2 -4.5t0 -5.5q0 -2 -1.5 -4.5t-2.5 -4.5q-1 -5 -0.5 -12t0.5 -14t-0.5 -14t0.5 -12t0 -10t-1 -11.5t1 -11.5q0 -1 1.5 -6.5t3.5 -6.5q2 -2 8.5 -1
t11.5 1h98q11 0 21 1t18 -1q5 -1 13 -3t10 -7q2 -4 0.5 -11.5t-0.5 -12.5q1 -4 2 -12t0 -16l-4 -19q-1 -6 -0.5 -12t0.5 -12t-1.5 -10t-6.5 -5q-6 -2 -15.5 -1t-17.5 1h-68q-8 0 -16.5 0.5t-16.5 -0.5l-6 -3q-6 -1 -12.5 0.5t-12.5 -0.5q-10 -2 -11 -6t-3 -15q0 -2 -1 -2.5
t-1 -2.5q0 -3 1 -3.5t1 -3.5q0 -1 -2 -5q-2 -9 -1 -21.5t1.5 -25.5t1 -26.5t-1.5 -23.5q0 -2 -1 -4t-1 -5q1 -3 2 -5.5t0 -7.5q-1 -8 -2.5 -15.5t-6.5 -9.5q-3 -1 -6 0t-6 0q-2 0 -2.5 -1t-2.5 -1q-4 -1 -8 0t-9 0q-3 -1 -12 -2.5t-17 0.5q-1 0 -2 1t-2 1q-13 3 -24.5 1.5
t-19.5 0.5q-4 1 -5.5 6t-2 11.5t0 13t1.5 11.5q2 10 0 20.5t0 19.5q0 2 1 3t1 3q1 5 0.5 9t-0.5 9q3 11 0 23q-2 10 0 22q1 5 2 11t-2 11l-2 4q-1 2 -2 3q-2 2 -6 1t-6 -1q-8 2 -20.5 2h-27.5q-11 0 -22.5 1t-19.5 -1q-1 0 -5 -2q-5 -1 -9.5 0t-9.5 0q-1 0 -2 -0.5t-2 -0.5
q-4 -1 -8 -0.5t-7 0.5q-4 -1 -6 -2t-5 0q-7 1 -11 7.5t-2 15.5q2 7 2 12t-2 14q0 1 -2 5q0 4 -0.5 8.5t-0.5 6.5q-2 10 0 16q2 13 4.5 23t13.5 12q2 0 4.5 -0.5t4.5 0.5l15 4q3 0 6 -0.5t6 0.5q2 0 6 2q7 2 15 0t16 0t16 2t16 2q9 2 20 1.5t17 -1.5q6 -2 7 -2q9 0 12.5 5
t4.5 13.5t0.5 18t1.5 18.5q2 15 0 30.5t0 29.5q0 2 1 3t1 3q1 4 0 8t0 9q2 4 2 5q1 6 0.5 10t2.5 9t12 5.5t16 2.5z" />
    <glyph glyph-name="comma" unicode="," horiz-adv-x="269" 
d="M92 155q13 0 25.5 -2.5t21.5 -8.5q2 -1 2 -2t2 -2q2 -2 4 -2t3 -1q3 -2 6.5 -5.5t5.5 -6.5t6 -8t4 -7q1 -2 0.5 -3t-0.5 -2q2 -4 4.5 -6.5t3.5 -6.5q2 -5 1.5 -9t0.5 -9q2 -8 1 -15.5t1 -14.5q1 -2 2.5 -10.5t-0.5 -13.5q0 -2 -0.5 -4.5t-1.5 -6.5q-1 -7 -2.5 -13
t-3.5 -11q-1 -5 -0.5 -9t-1.5 -8q-1 -2 -2 -3.5t-2 -3.5q-2 -4 -2 -7.5t-2 -7.5q-11 -28 -32 -57q-3 -5 -7.5 -8t-7.5 -8q-8 -11 -17 -19t-20 -15l-13 -6q-9 -2 -16 3.5t-12 8.5q-5 4 -10 10t-9 11q-2 3 -7.5 8t-10 11t-6.5 12.5t3 13.5q5 9 15.5 15t17.5 16q3 4 4.5 6.5
t3.5 7.5t6 9t2 12q-2 5 -6.5 7.5t-11.5 5.5q-10 4 -21 18t-13 26q0 5 -2 7q-2 15 0 29q2 5 1.5 7.5t0.5 7.5q4 21 20 35t32 25q4 2 11.5 5t12.5 4q3 1 7.5 1h8.5z" />
    <glyph glyph-name="hyphen" unicode="-" horiz-adv-x="599" 
d="M479 398q5 2 18.5 1.5t18.5 -2.5q4 -2 6 -7.5t2 -10.5q0 -3 -1 -5.5t0 -5.5q0 -3 1.5 -6.5t0.5 -8.5q0 -2 -1 -3t-1 -3q0 -5 2.5 -10t1.5 -13q-2 -4 -2 -5q-2 -11 -2.5 -20.5t-9.5 -13.5q-5 -2 -12.5 -0.5t-15.5 -0.5q-10 -1 -22 -1t-21 -2q-6 -2 -12 -0.5t-12 0.5
q-4 -1 -10.5 -2t-11.5 0q-9 2 -26 0q-14 -3 -29 0q-8 2 -16.5 0.5t-13.5 -2.5q-3 -1 -6.5 -0.5t-5.5 0.5q-4 -1 -8.5 -2.5t-9.5 -0.5q-2 1 -2.5 1.5t-2.5 1.5q-11 2 -24 1t-26 -1q-12 0 -24.5 1t-23.5 -1q-3 -1 -5 -2t-6 -1l-7 3q-14 2 -29.5 0t-30.5 0q-2 0 -6 2
q-8 2 -17 0t-17 0q-10 2 -18.5 2t-16.5 2q-7 1 -16 1t-11 5t-1.5 10t0.5 9q2 11 1 27.5t1 25.5q2 12 1.5 20.5t7.5 13.5q4 2 8.5 1.5t9.5 -1.5q8 -2 20.5 0t21.5 0q16 -2 30 0q11 2 24 0q21 -3 42.5 -3.5t47.5 -0.5q14 0 29.5 -1t27.5 1q21 3 41.5 3.5t45.5 0.5
q12 0 24.5 -1t21.5 1q7 2 18.5 2h22.5h20t16 1z" />
    <glyph glyph-name="period" unicode="." horiz-adv-x="269" 
d="M91 158q5 2 7.5 1t4.5 -2q4 -1 7.5 0t6.5 0q7 0 15 -4q1 -1 1 -2t2 -2l7 -2q6 -4 12 -12q4 -5 7.5 -13t4.5 -15l2 -11q2 -6 1 -13.5t-3 -13.5q-1 -7 -0.5 -10.5t-1.5 -9.5q-1 -4 -2.5 -7t-3.5 -6q-5 -11 -10.5 -23t-15.5 -18q-3 -2 -9 -4.5t-9 -3.5q-2 -1 -6 0t-8 0
q-19 -3 -31 0q-5 1 -9 0t-8 0q-2 0 -6 4l-23 10q-13 10 -21 25q-2 4 -2 6.5t-1 6.5q-3 9 -3.5 17.5t3.5 18.5q1 2 0.5 4.5t0.5 4.5l4 6q5 11 10 19.5t11 17.5l10 10q8 6 18.5 12t21.5 8q4 1 8.5 1h7.5z" />
    <glyph glyph-name="slash" unicode="/" horiz-adv-x="439" 
d="M299 780q5 2 14.5 1.5t14.5 -2.5l7 -4l18 -6q5 -2 11.5 -4t13.5 -4q8 -3 17 -8t10 -9q3 -9 -1.5 -19.5t-6.5 -18.5q-2 -7 -5.5 -13.5t-6.5 -14.5l-7 -28q-2 -4 -4 -7.5t-4 -8.5q-3 -8 -5 -17t-5 -17q-2 -5 -5 -10.5t-5 -11.5q-2 -2 -2.5 -5.5t-1.5 -5.5
q-5 -16 -10.5 -31.5t-11.5 -31.5q-5 -15 -12.5 -31t-13.5 -32q-2 -4 -2 -7.5t-2 -7.5q-1 -4 -3.5 -7.5t-4.5 -8.5q-4 -11 -7.5 -22t-7.5 -24q-3 -7 -6.5 -13t-5.5 -13q-2 -6 -3 -10t-3 -9q-3 -7 -6.5 -14.5t-5.5 -15.5q-2 -7 -5 -13t-5 -12q-2 -2 -1.5 -4.5t-0.5 -4.5
q-3 -8 -7 -15t-7 -15q-2 -4 -2 -7.5t-2 -7.5l-6 -16q-5 -15 -12 -29.5t-12 -30.5q-5 -13 -11 -25.5t-11 -26.5q-2 -7 -3.5 -13t-3.5 -12q-3 -7 -7 -13t-5 -12v-4q-1 -2 -2.5 -4t-2.5 -4l-7 -23q-2 -5 -4.5 -8.5t-3.5 -7.5q-4 -10 -6.5 -17.5t-12.5 -9.5q-2 -1 -3.5 0t-3.5 2
q-6 2 -11.5 1t-12.5 1t-16.5 6t-17.5 6h-5q-2 0 -4.5 1.5t-4.5 2.5q-6 2 -12 3t-8 3q-1 2 -2.5 5.5t-1.5 4.5q0 2 1 5.5t2 5.5q4 10 6.5 19.5t5.5 20.5q2 7 5 12t5 13q2 5 4 10.5t4 10.5q5 13 8 23q2 6 5 10.5t5 9.5l2 10q3 9 8 17.5t8 16.5q2 7 4 13.5t4 12.5l4 6l2 10
l6 15q1 5 2.5 8.5t3.5 8.5q2 6 4 9q2 7 5.5 13.5t6.5 12.5q1 2 0.5 5t1.5 5q0 2 1.5 3.5t2.5 3.5q2 6 3.5 13t3.5 13t4.5 10t4.5 11q2 8 6.5 16t6.5 16l2 9q3 8 6.5 14t5.5 14q5 16 11 30.5t11 29.5l8 25q6 18 14 35.5t14 34.5v4q2 5 4 10.5t4 11.5l10 24l2 9q2 6 5 12t5 14
q1 4 2.5 6.5t3.5 7.5q1 3 2.5 6.5t3.5 6.5q5 12 7 23q3 11 8 20t9 20t7 21.5t10 12.5z" />
    <glyph glyph-name="zero" unicode="0" horiz-adv-x="451" 
d="M187 745q3 1 6 0t6 -1q5 -2 11.5 -1.5t12.5 -0.5q5 -2 11.5 -5t11.5 -6q12 -8 25 -17.5t21 -20.5l9 -14q2 -3 7 -9t6 -9v-5q2 -5 6 -9.5t6 -11.5q2 -3 1.5 -5.5t0.5 -7.5q2 -5 4 -9.5t4 -9.5q2 -7 3 -13.5t3 -15.5q1 -4 3 -7.5t3 -7.5q0 -2 -0.5 -4t0.5 -4l2 -6t2 -7
q2 -6 1 -12.5t1 -12.5l4 -16q1 -2 0 -4t0 -4q0 -1 2 -3q2 -8 1 -17t1 -17q0 -2 1 -3.5t1 -3.5t-1 -3t-1 -2q0 -2 1 -2.5t1 -2.5q2 -7 0 -16.5t0 -16.5q0 -2 1 -2.5t1 -1.5q2 -5 0.5 -11.5t-0.5 -12.5l2 -22l2 -18q0 -3 1.5 -5.5t2.5 -5.5q0 -2 -0.5 -4t0.5 -4q2 -8 5 -13.5
t1 -13.5q-1 -3 -1 -3.5t1 -4.5q1 -5 0 -11.5t-2 -10.5q-1 -3 0.5 -4.5t1.5 -4.5q0 -2 -1 -2.5t-1 -1.5q-2 -10 -1 -24t-1 -26q-1 -2 -2.5 -4t-1.5 -4q-1 -2 -0.5 -4t0.5 -4q-2 -5 -3.5 -10t-2.5 -10v-6q-1 -4 -2 -7.5t-2 -8.5q-2 -6 -5 -12.5t-5 -12.5q-1 -3 -1.5 -6.5
t-3.5 -5.5l-2 -2l-1 -5q-1 -1 -1 -2q-1 -1 -1 -2v-1q-5 -8 -9 -15.5t-9 -14.5q-5 -6 -10 -11t-10 -11q-10 -9 -21.5 -18t-25.5 -14l-10 -4l-10 -4l-12 -4q-3 -1 -6.5 0t-7.5 0q-8 -2 -27 -3t-30 1q-2 1 -6.5 1t-8.5 1q-5 1 -11.5 3.5t-11.5 4.5q-9 4 -19 9.5t-17 10.5
q-5 4 -11 11t-10 12q-2 3 -4.5 5t-4.5 4q-7 9 -14.5 22.5t-12.5 24.5q0 2 -2 6l-8 31l-2.5 7.5t-2.5 9.5q-1 2 -0.5 4t0.5 4l-3 5q-2 8 -2 15t-2 17q0 2 -0.5 2.5t-0.5 1.5q-2 5 -0.5 10t0.5 10q-3 10 0 23q2 9 -0.5 21t0.5 24q0 2 0.5 2.5t0.5 1.5q2 11 0 23t0 23q2 2 2 4
q2 12 1 24t1 21q1 2 1.5 2.5t1.5 2.5q2 9 1 17.5t1 16.5l7 39q1 2 0.5 3.5t-0.5 3.5t3 5q1 6 0.5 12t0.5 12l10 38l2 12q2 8 6.5 18t7.5 19q1 2 1 4.5t1 4.5q4 11 8.5 20t9.5 20l6 10t6 9l6 14q4 5 8.5 9t7.5 9q4 7 8 12t11 10q3 2 5 4.5t4 4.5l22 14q8 5 21 9q4 1 8.5 0.5
t6.5 0.5zM191 613q-6 -6 -9 -12q-5 -7 -11 -18t-8 -16q-2 -9 -6.5 -19t-6.5 -19l-7 -23q0 -2 0.5 -3t-0.5 -3q-2 -8 -5 -14.5t-5 -14.5q0 -2 0.5 -4.5t-0.5 -4.5q-1 -3 -2 -8t-1 -7q-2 -5 -1.5 -11t-0.5 -11q-1 -3 -2.5 -5.5t-2.5 -4.5q0 -4 0.5 -7.5t-0.5 -6.5t-2 -8t-1 -8
q-1 -2 -0.5 -5t0.5 -5q-2 -2 -2 -4q-1 -2 0 -3.5t2 -5.5q1 -7 -1 -11.5t-3 -9.5q-2 -8 -1.5 -14t1.5 -11q1 -9 0 -18q-2 -6 -1.5 -11t-0.5 -10q-1 -4 -2 -5.5t-1 -4.5l3 -5q2 -13 1 -25t1 -24q1 -6 1.5 -13.5t2.5 -14.5q2 -8 4 -17t6 -17q5 -13 13 -25t19 -20q2 -1 5.5 -3
t5.5 -3q15 -2 25 2.5t18 10.5q9 7 15 17t11 22q2 5 4.5 9t3.5 8l8 40q2 12 3 25.5t3 24.5q0 4 0.5 7t0.5 5q1 4 0 5.5t-1 5.5q-2 6 -2.5 11.5t-1.5 10.5q-2 5 -1.5 10t-0.5 10l-5 14q-1 3 -0.5 4t0.5 4q2 8 0 17t-3 15q-1 2 -0.5 5t0.5 5q-2 2 -2 3q-2 8 -1 18t1 20v21.5
t2 19.5q1 5 -1 10t-3 11q-2 7 0 14.5t0 13.5q0 1 -1 1.5t-2 2.5q0 3 0.5 7t-0.5 7q-1 8 -4 15.5t-5 15.5q-3 13 -9 23q-3 7 -7.5 14t-9.5 10q-2 1 -2.5 1.5t-2.5 1.5t-3 1z" />
    <glyph glyph-name="one" unicode="1" horiz-adv-x="373" 
d="M238 736q8 2 21.5 0t15.5 -9q1 -2 0.5 -4.5t-0.5 -4.5q2 -2 2 -3q2 -4 0.5 -8.5t-0.5 -9.5q2 -2 2 -4q2 -8 0 -15.5t0 -14.5l3 -5q1 -3 0 -6.5t0 -6.5l3 -26q2 -13 0 -25t0 -22l2 -4q1 -4 0.5 -7.5t-0.5 -6.5q1 -2 2 -4.5t0 -6.5q0 -3 -0.5 -3.5t0.5 -3.5q2 -11 0 -24
t0 -25q1 -3 2.5 -6l2.5 -5q2 -14 -0.5 -28.5t0.5 -28.5q1 -6 1 -16.5v-22t-0.5 -22.5t-0.5 -18q0 -3 1.5 -6t1.5 -5q1 -2 0 -4l-2 -4q0 -1 1 -1.5t1 -2.5q2 -7 1 -17t-1 -20v-22t-2 -19v-16q1 -5 0 -10q-1 -6 -0.5 -15t0.5 -18t-0.5 -18t0.5 -15q1 -4 1.5 -4.5t-1.5 -4.5
q0 -4 0.5 -8.5t-0.5 -8.5q-2 -11 -0.5 -25.5t-0.5 -24.5q-1 -2 -2 -2.5t-1 -1.5q-2 -11 0 -23.5t0 -24.5q0 -2 -2 -4q0 -3 0.5 -5.5t-0.5 -4.5q-2 -9 -13 -9.5t-20 -2.5q-4 -1 -6.5 0t-6.5 2q-8 2 -15.5 1t-15.5 -1t-16 -1t-15 1q-6 2 -8 14.5t0 22.5q0 2 1 3t1 2q1 2 0.5 6
t-0.5 6q2 6 2 9.5t-2 9.5q-1 5 0.5 10.5t1.5 8.5q2 9 2 20.5t-2 18.5q0 1 -1 2t-1 3t1 3t1 3q2 11 0 22.5t0 22.5l2 4q2 7 1 18t-1 20v76q0 11 1 20.5t-1 17.5q-1 6 0 17l1.5 7.5t-1.5 7.5q-1 5 0 11t0 11q0 2 -0.5 4t-1.5 7q0 4 -0.5 4t0.5 4q2 7 0 14q-1 5 -1.5 9.5
t-2.5 0.5q-8 -13 -13 -28q-2 -5 -3 -7t-3 -7t-4 -9.5t-4 -9.5q-3 -10 -8 -20t-8 -20q-2 -8 -5 -14t-6 -14q-2 -2 -6.5 -12t-7.5 -11q-2 -1 -9 -1t-10 1q-2 0 -2.5 1.5t-2.5 2.5q-5 2 -10.5 3t-11.5 3q-5 2 -10 5t-10 5q-6 2 -13 3.5t-12 3.5q-9 4 -11.5 11t-0.5 18q1 4 3 7
l4 6q2 7 3.5 13t3.5 13q1 2 2.5 3t2.5 3q2 5 3.5 10.5t3.5 10.5t5 10t5 10q3 8 6 17t7 17q3 9 8.5 18.5t8.5 17.5q2 6 4 11.5t4 10.5q3 8 8 16t8 16l4 12t4 11q2 4 4 7t4 7l2 10q2 7 6.5 13.5t6.5 14.5q2 2 2 4.5t1 5.5q2 6 7 14t7 15q3 11 6 20.5t8 17.5q2 2 4.5 2.5
t4.5 2.5q5 6 5.5 13.5t7.5 10.5q8 5 17 3t20 0q2 0 4 2q5 1 11.5 0.5t9.5 0.5z" />
    <glyph glyph-name="two" unicode="2" horiz-adv-x="483" 
d="M213 757q6 1 12 0l12 -2q6 -2 12 -1.5t12 -0.5q3 -1 5.5 -2.5t6.5 -2.5t6.5 -0.5t5.5 -1.5l16 -6q3 -1 5.5 -3t4.5 -4q5 -3 10 -5.5t10 -5.5t9.5 -9t8.5 -11q7 -11 12 -22q1 -4 3 -7.5t3 -7.5q0 -2 -0.5 -3t0.5 -3q0 -2 1.5 -3.5t2.5 -3.5q0 -4 -1 -7.5t1 -7.5
q0 -2 1.5 -3t2.5 -3q1 -4 0 -10.5t-2 -11.5q-2 -14 0.5 -29.5t-0.5 -27.5q0 -1 -1 -2.5t-1 -2.5q-1 -2 -0.5 -5t0.5 -5q-1 -5 -3 -8.5t-3 -6.5q-1 -2 -0.5 -4t0.5 -4l-4 -10q-2 -11 -4 -20.5t-6 -20.5l-10 -22l-2 -10q-5 -13 -13 -25.5t-13 -25.5q-1 -3 -0.5 -5t-1.5 -4
q-1 -2 -2.5 -2.5t-3.5 -2.5q-5 -8 -8 -16.5t-8 -16.5q-1 -1 -1.5 -1t-1.5 -2q-3 -5 -5 -10.5t-6 -10.5q-1 -1 -2 -1t-2 -2q-4 -7 -6.5 -14.5t-7.5 -13.5q-2 -3 -4.5 -5.5t-4.5 -5.5q-4 -5 -6.5 -11.5t-5.5 -11.5l-4 -3q-6 -12 -13 -23.5t-15 -22.5l-2 -7l-4 -4t-4 -5
q-2 -2 -2 -5t-2 -6l-13 -20q-3 -5 -4.5 -11.5t4.5 -9.5q5 -2 12.5 -2t13.5 -2l17 -4q5 -2 11 -1t12 -1l16 -4q2 -1 5 0t5 0q12 -2 20 -4q2 0 4.5 0.5t4.5 -0.5q2 0 2.5 -1t2.5 -1q6 -2 12 -1.5t12 -0.5l47 -8q2 0 4 0.5t4 -0.5q1 0 1.5 -1t2.5 -1q8 -2 15.5 -1.5t12.5 -2.5
q2 -2 3.5 -5t0.5 -5q0 -2 -1.5 -3.5t-2.5 -3.5q-1 -6 0 -12t-1 -14q-1 -2 -2.5 -3t-1.5 -3q-1 -2 -0.5 -3t0.5 -3l-3 -11q0 -3 -1.5 -4.5t-1.5 -3.5q-1 -1 -0.5 -3.5t0.5 -4.5q-2 -5 -4.5 -15.5t-6.5 -12.5t-14 -1t-16 1q-20 0 -36 1.5t-33 4.5q-8 2 -15.5 1t-14.5 1
q-1 0 -2 1t-2 1q-5 2 -11 1.5t-11 0.5q-5 2 -10 2.5t-9 1.5q-8 2 -15 2t-15 2q-2 0 -2.5 1t-2.5 1q-5 2 -10 1.5t-10 0.5q-2 0 -6.5 1.5t-6.5 2.5l-12 2q-5 1 -10 0.5t-10 1.5q-2 0 -4 1.5t-4 2.5q-5 1 -9.5 0.5t-10.5 1.5q-2 0 -3.5 1.5t-3.5 2.5q-3 0 -6.5 -0.5t-6.5 0.5
q-4 0 -6.5 1.5t-7.5 2.5q-2 0 -3.5 1.5t-3.5 2.5q-4 1 -7.5 0t-6.5 0q-6 1 -17.5 4.5t-14.5 5.5t-5.5 9.5t-0.5 14.5q0 1 0.5 1.5t0.5 2.5q2 5 0.5 9t-0.5 8q1 3 2.5 5.5t1.5 4.5l3 9q1 6 0.5 11t1.5 11q1 6 3 15t7 12q4 3 9 3t10 4t9 15t9 20l4 3l6 10q10 16 18.5 32
t17.5 31q2 3 5.5 6.5t5.5 7.5q2 2 1.5 3.5t1.5 3.5q8 12 16.5 24t16.5 24q5 8 9 14.5t8 14.5q3 6 7 12t8 11q2 4 3 8t3 7l4 3l12 24l12 24l2 10q2 6 5 11.5t5 13.5t6 16.5t6 16.5q1 5 1 10.5t2 10.5q3 3 3 4q0 2 -0.5 4.5t0.5 5.5q2 10 3 22.5t-1 21.5q-2 8 -8.5 14
t-14.5 10q-2 1 -4.5 2.5t-4.5 1.5q-4 2 -10.5 2h-8.5h-10.5t-11.5 -2q-2 0 -2.5 -1t-1.5 -1q-3 -1 -5.5 0t-4.5 0q-12 -2 -20 -4l-11 -4q-6 -1 -12.5 -3.5t-13.5 -4.5q-3 0 -6 0.5t-6 -0.5q-5 -1 -11 0t-8 6q-2 4 -1.5 7.5t-0.5 6.5t-2 5.5t-2 4.5q0 2 0.5 3t-0.5 3
q0 2 -1 2.5t-1 2.5q-1 3 0 6.5t0 6.5q-1 5 -3 13t-3 13q0 2 0.5 4t-0.5 4q-1 4 -1.5 7t1.5 8q3 6 13.5 10.5t18.5 6.5l21 7q3 0 6 -0.5t5 0.5q2 0 4.5 1.5t4.5 1.5q7 2 14.5 2t15.5 2l4 3q2 0 5 -0.5t5 0.5q2 0 4 2q8 2 18 1t18 1z" />
    <glyph glyph-name="three" unicode="3" horiz-adv-x="406" 
d="M61 756q6 1 15 -2q11 -2 23 0t23 0l22 -3q2 -1 4.5 -0.5t4.5 0.5l5 -3l16 -2q2 0 4 -2q5 -1 9.5 -0.5t9.5 -1.5q5 -1 12 -4.5t14 -5.5q6 -2 11.5 -3.5t11.5 -4.5q14 -9 27.5 -18.5t24.5 -20.5q7 -7 13 -15q3 -5 6.5 -8t7.5 -8q4 -6 6 -11t6 -11t5.5 -12.5t4.5 -14.5l4 -9
q0 -2 -0.5 -3.5t0.5 -2.5q0 -2 1.5 -4.5t2.5 -4.5q2 -5 1.5 -11t0.5 -11q0 -1 1 -1.5t1 -1.5q1 -3 -0.5 -5t-1.5 -5t2 -5.5t2 -4.5t-1.5 -5l-2.5 -5q-1 -6 0 -12t0 -10q0 -2 -1 -2.5t-1 -1.5q0 -2 0.5 -5t-0.5 -5q-1 -3 -2 -6.5t-2 -8.5q-2 -5 -4 -9t-4 -9q-3 -9 -8 -15
t-9 -12q-2 -2 -2 -4t-1 -4q-2 -2 -4 -2.5t-3 -2.5q-2 -2 -2.5 -4.5t-2.5 -4.5q-3 -4 -7.5 -7.5t-7.5 -8.5q-4 -5 -8 -11t-9 -8q-1 -1 -2 -0.5t-1 -0.5q-2 -2 -5.5 -7.5t-3.5 -7.5q1 -5 8 -9t10 -9l11 -17q1 -2 2 -2.5t3 -2.5l6 -12q2 -4 2 -5t2 -5q1 -2 2 -2t2 -2
q5 -8 9.5 -21t6.5 -24q1 -5 3 -8t3 -8l2 -19q1 -4 2.5 -6.5t1.5 -4.5q1 -2 0.5 -4.5t-0.5 -4.5q2 -8 2 -23.5t-2 -22.5q0 -2 -1 -2.5t-1 -2.5q-2 -6 -1 -11.5t-1 -10.5t-4 -11t-4 -11q-9 -18 -20 -34.5t-27 -27.5l-3.5 -3.5l-3.5 -3.5q-13 -9 -27 -17.5t-31 -14.5l-6 -4
l-28 -8q-4 -2 -7.5 -3.5t-6.5 -2.5q-4 -1 -8 0t-7 0l-11 -2q-22 -4 -48.5 -4.5t-49.5 4.5q-7 1 -13.5 1.5t-9.5 5.5q-2 3 -2.5 11t1.5 15q1 5 1 9.5v7.5l2 4q2 7 0.5 13t-0.5 11q1 2 1.5 2t0.5 2q2 10 2 19t5 15q2 0 6 2l4 2q1 0 2 -1t2 -1q2 -1 5 -0.5t5 0.5q1 0 1.5 -1
t2.5 -1q5 -1 9.5 0t8.5 0q7 -2 15 -3t16 1l23 6q14 5 31 13.5t27 22.5q5 8 10.5 16t7.5 17q1 5 2.5 11t-0.5 14q0 2 -1 3t-1 2q-1 3 -0.5 6t0.5 5q-2 13 -9 25t-15 23q-3 4 -8.5 9.5t-9.5 7.5l-8 6q-2 2 -5.5 2.5t-5.5 2.5l-2.5 2.5t-4.5 1.5q-3 1 -6 3t-5 3q-2 0 -4 -0.5
t-4 0.5l-4 2q-7 2 -16.5 1t-19.5 -1t-19.5 0.5t-17.5 -0.5q-4 -2 -5 -2q-2 0 -2.5 0.5t-2.5 1.5q-7 1 -14 0.5t-13 1.5q-4 1 -5 5t-2 9q-2 4 -1.5 5t1.5 5q1 6 1.5 18.5t-1.5 18.5q-4 11 0 22q2 8 2 16.5t4 12.5q5 4 12 3t15 1q2 0 4 2q11 2 22.5 1t21.5 1q1 0 2 1t2 1
q2 0 4 -0.5t4 0.5q6 2 13.5 3t14.5 3q4 1 8 3.5t9 4.5q19 6 34.5 14.5t25.5 22.5q2 5 7.5 14t6.5 14v6l4 11q1 3 0 6t0 6q3 20 0 34q-6 25 -20.5 40t-37.5 23l-6 4l-10 2q-2 1 -3.5 2.5t-3.5 1.5q-8 2 -16.5 2t-15.5 2q-5 2 -12.5 1t-12.5 -3q-8 -2 -20.5 -1t-17.5 3
q-7 2 -11.5 0.5t-8.5 2.5q-3 2 -4 10.5t-3 14.5q-2 7 -1 16.5t1 19.5q0 16 -0.5 28.5t6.5 18.5q6 6 17 6.5t22 2.5z" />
    <glyph glyph-name="four" unicode="4" horiz-adv-x="487" 
d="M217 793q5 2 14 -2q4 -1 8 -3.5t9 -4.5l9 -2q2 0 3 -1.5t3 -1.5l10 -5q6 -2 14.5 -4.5t15.5 -7.5q12 -6 9 -24q0 -3 -3 -9.5t-5 -13t-2 -12.5t5 -8q4 -2 9.5 -2t10.5 -0.5t9.5 -2.5t5.5 -7q2 -11 0.5 -25.5t1.5 -30.5q2 -8 4 -25t0 -31q-2 -10 -2 -26.5v-31.5t-1 -29
t1 -25q0 -1 2 -5q0 -2 -1 -4t-1 -4q-2 -7 -2 -23.5t2 -24.5q2 -11 10 -13t19 0q6 2 13 0.5t13 -0.5q4 1 5.5 1.5t6.5 -1.5q5 -1 10.5 -1.5t7.5 -4.5q1 -3 0 -6.5t0 -8.5q2 -7 4 -11.5t0 -12.5t-4 -18t0 -21q1 -5 2.5 -8.5t0.5 -8.5q-3 -10 -10 -13q-9 -2 -20 -1t-21 -1
q-1 0 -1.5 -1t-1.5 -1q-5 -1 -11 0t-11 0q-2 0 -4 -2q-2 0 -3.5 0.5t-3.5 -0.5q-1 0 -2.5 -4.5t-2.5 -6.5q-2 -14 -1 -29t-1 -28q0 -2 -1 -3t-1 -3t1.5 -4.5t0.5 -5.5q0 -2 -1 -2.5t-1 -1.5q-1 -5 0 -9t0 -8q0 -2 -1 -3t-1 -3q-3 -14 -1.5 -30t-0.5 -31q-2 -9 -2 -18t-2 -16
q-2 -5 0 -13.5t0 -15.5q-1 -4 -1 -5t1 -6t-2 -14t-5 -10q-1 0 -3 0.5t-4 -0.5q-1 0 -2 -1t-2 -1q-3 -1 -7 0t-8 0q-5 -1 -9.5 -1.5t-12.5 1.5t-16.5 0.5t-14.5 -0.5q-1 0 -2 1t-2 1q-6 2 -12.5 0.5t-10.5 -0.5t-6 7.5t-3 15t-1 18t1 15.5l4 15q2 13 0.5 29t1.5 27q2 6 0 14
t0 16q0 2 2 4q1 8 -0.5 15t0.5 15q0 2 2 4q1 8 -0.5 15t0.5 14q0 3 2 9t0 13q-1 5 -3 11t-4 7q-3 2 -11.5 1t-13.5 -1h-149q-13 0 -20.5 0.5t-12.5 8.5q-2 3 -2 7.5t-1 9.5q-2 11 -2.5 22t-2.5 22q-2 4 -1 10t1 11q-1 3 -1.5 5.5t1.5 7.5q1 6 4.5 9.5t6.5 8.5t5.5 11t5.5 12
q5 11 11 22t12 23t14 26q3 5 5 11t5 11q1 2 2 2t2 2q5 7 8 15.5t6 16.5q5 11 11.5 22.5t12.5 22.5q2 6 5 12l6 12l26 50l13 27q2 6 5.5 12.5t5.5 11.5q4 9 7 18t8 18l4 6t3 6q3 9 5 16.5t7 15.5q3 4 5.5 6.5t7.5 4.5zM221 527q-10 -15 -18 -33.5t-18 -33.5q-2 -3 -3.5 -4.5
t-2.5 -3.5q-1 -5 -0.5 -6.5t-1.5 -3.5q-10 -15 -18 -36q-2 -4 -6 -11t-3 -12q0 -4 4.5 -5t11 -0.5l13 1t11.5 -0.5q7 -2 19.5 -1.5t14.5 6.5q2 4 0 12.5t0 14.5q2 8 2 19t2 23q1 6 1 15t-0.5 18.5t-1 17.5t-1.5 12q-1 5 -0.5 9.5t-4.5 2.5z" />
    <glyph glyph-name="five" unicode="5" horiz-adv-x="446" 
d="M65 757q3 1 9.5 1.5t14 0.5t14.5 -0.5t11 -1.5q2 0 2 -0.5t2 -1.5q12 -2 23.5 -0.5t17.5 -4.5q2 -2 2 -4t1 -4q2 -3 5.5 -6t7.5 -4q3 -1 6 0t5 1q3 0 7 -0.5t8 -0.5q10 -3 20 0q7 1 16 0t14 -2q9 -2 18.5 0t19.5 0q2 -2 4 -2q14 -3 28 -0.5t27 0.5l4 -3q7 -2 14 -0.5
t12 -0.5q2 -2 4 -5.5t3 -5.5q2 -7 -1.5 -17.5t-1.5 -19.5q2 -4 1.5 -4.5t-1.5 -4.5q-1 -5 0.5 -11t-0.5 -11q-1 -5 -2 -14.5t-4 -12.5q-1 -1 -7 -2.5t-8 -2.5q-12 -2 -24 -1t-26 1h-29.5t-24.5 2q-4 2 -9 1t-8 -1l-3 1.5t-3 0.5q-2 1 -3 0t-3 -2q-6 -1 -14.5 -0.5t-16.5 0.5
q-7 0 -16.5 1t-14.5 -1q-2 0 -4.5 -4t-2.5 -6q-1 -2 -0.5 -3.5t0.5 -3.5q-3 -3 -3 -4q-1 -4 0 -8t0 -8q0 -2 -1.5 -7t-0.5 -9q1 -5 0 -10q-1 -4 0 -8.5t0 -7.5q-1 -5 -2.5 -17t0.5 -20q1 -3 1 -3.5t-1 -4.5q-2 -8 0 -19t5 -15q5 -5 17 -7t20 -4q5 -2 11 -4t11 -4t10 -5
t10 -7q5 -3 10.5 -5t10.5 -5q4 -3 6.5 -6.5t6.5 -5.5q7 -4 15 -12t13 -15q2 -5 7.5 -10t7.5 -10q1 -1 0.5 -2.5t-0.5 -2.5q1 -2 2 -2t2 -2q2 -2 3 -6.5t3 -7.5t2.5 -4t1.5 -6q1 -4 3.5 -8t4.5 -9q2 -6 2 -10.5t2 -12.5q1 -3 3 -5.5t1 -8.5q-1 -4 0 -9t0 -9.5t0 -8.5
q1 -3 2.5 -11t-0.5 -14q-1 -2 -1 -5t-1 -8q0 -2 -1 -3t-1 -2q0 -2 1 -3.5t1 -4.5q-1 -5 -2.5 -10.5t-3.5 -10.5q0 -2 0.5 -4.5t-0.5 -4.5q0 -3 -2 -6.5t-4 -7.5l-2 -10q-1 -2 -4.5 -11.5t-5.5 -11.5h-3q-3 -4 -4 -8.5t-3 -8.5l-15 -19q-3 -5 -9.5 -11t-11.5 -10l-38 -26
q-15 -10 -32.5 -15t-36.5 -11q-3 -1 -5 -2l-4 -2q-4 -1 -7 0t-5 0l-15 -4q-17 -3 -34.5 -3.5t-39.5 -0.5q-9 0 -18.5 -0.5t-18.5 0t-15 3t-7 8.5q-2 8 -1 14t2 13q2 7 2 22t-2 23q-2 9 -1 18t9 11t19.5 0t20.5 0q2 0 2.5 1t2.5 1q3 1 6.5 0.5t6.5 -0.5q11 2 23 3.5t23 4.5
q2 1 3.5 2t3.5 2q8 3 15.5 5t15.5 5q9 4 18 9.5t17 10.5q11 8 20.5 22t13.5 28l2 9q2 6 2 10t-1.5 8t-2.5 9q-1 2 -0.5 5t0.5 5l-4 11q-6 14 -16 28.5t-22 23.5q-6 5 -14 9t-14 8q-4 2 -5.5 2.5t-6.5 2.5q-3 2 -6.5 4.5t-7.5 3.5h-4q-2 1 -3 2.5t-3 1.5l-11 5q-4 1 -8 0.5
t-8 0.5q-2 2 -4 2q-6 1 -13 0.5t-13 -0.5t-11 1.5t-7 6.5t-1 12.5t-1 13.5q-2 10 -2 29.5t2 30.5q3 15 1 32.5t1 34.5q2 11 0 23t0 23q0 1 1 2t1 2q2 11 0 21.5t0 19.5q0 2 1 3t1 2q2 6 0.5 13t-0.5 15q2 6 3.5 11t0.5 10q-1 4 -1 5t1 6t0 11t0 12q0 2 1 2.5t1 1.5q1 5 0 9
t0 9l4 12q1 3 0 6t0 5q0 2 1 2.5t1 2.5q1 2 0.5 3t-0.5 3q2 5 6.5 7t6.5 3z" />
    <glyph glyph-name="six" unicode="6" horiz-adv-x="480" 
d="M360 726q8 2 19.5 -1.5t13.5 -9.5q2 -2 1 -5.5t-1 -6.5l5 -17q0 -2 -1 -3.5t-1 -3.5q0 -1 2 -5q0 -2 -0.5 -5.5t0.5 -5.5q1 -5 2.5 -20.5t-0.5 -22.5q-3 -8 -16.5 -8t-23.5 -2q-5 0 -13 -2q-2 0 -3 -1.5t-3 -2.5q-8 -2 -15.5 -3.5t-15.5 -4.5q-31 -10 -59 -30
q-2 -2 -4 -4.5t-5 -4.5q-7 -5 -12 -10.5t-10 -11.5q-2 -2 -4.5 -4t-4.5 -4q-8 -11 -12.5 -22.5t-11.5 -22.5q-4 -5 -5 -10.5t9 -7.5q8 -2 18.5 0t17.5 0l15 -4q3 -1 8 -0.5t8 -0.5q8 -3 16 -5t17 -5q5 -2 10.5 -5.5t10.5 -6.5t10 -5.5t9 -5.5q6 -4 11.5 -9.5l10.5 -10.5
l8.5 -8.5t6.5 -8.5q2 -2 4.5 -4t4.5 -5l9 -14q1 -2 2 -2.5t2 -1.5q0 -2 -0.5 -3.5t0.5 -2.5q1 -2 1.5 -1.5t1.5 -3.5q2 -5 5.5 -10t4.5 -9q4 -13 7.5 -25t6.5 -25l3 -5q2 -11 1 -22.5t1 -22.5q0 -5 1.5 -15.5t-0.5 -18.5q-2 -10 -1 -18t0 -14q-1 -2 -2.5 -4t-2.5 -4l-2 -18
q-1 -5 -2.5 -9t-2.5 -8q-1 -2 -0.5 -2.5t0.5 -2.5q-2 -5 -4.5 -9t-4.5 -9q-1 -2 -0.5 -4t-0.5 -4q-5 -13 -15 -27.5t-18 -25.5q-3 -5 -8.5 -9.5t-9.5 -6.5q-2 -2 -3.5 -4t-4.5 -4q-2 -2 -4.5 -2.5t-4.5 -2.5q-8 -5 -14 -8t-16 -7q-3 -2 -6.5 -3.5t-6.5 -2.5q-7 -2 -12 -1.5
t-10 -0.5l-4 -2q-2 -1 -5.5 0t-6.5 0q-12 -2 -29.5 -3t-29.5 1l-29 6q-2 0 -4.5 -0.5t-5.5 0.5q-5 1 -8.5 2.5t-8.5 3.5q-4 1 -9.5 4.5t-12.5 6.5q-4 2 -8 3.5t-7 3.5q-10 7 -20.5 14.5t-17.5 17.5t-17 19t-13 21q-2 5 -7 12t-7 12q0 2 0.5 2.5t-0.5 2.5q0 2 -2 6t-4 7
q-3 10 -5 20.5t-5 19.5q-2 6 -1 13.5t-1 15.5q-2 11 -4 27.5t1 27.5q0 2 1 6.5t2 7.5q2 9 1 19.5t1 18.5l3 4q0 2 -0.5 4t0.5 4l5 22q1 2 0.5 5.5t-0.5 6.5q1 2 1 4.5t1 6.5q2 7 4 13.5t4 12.5q2 9 4 17t4 17q2 8 7.5 19t8.5 21l8 25q2 4 4.5 7t3.5 7q3 11 10 22.5t13 20.5
q5 8 9.5 16.5t9.5 16.5l6 8q4 6 9.5 11.5t9.5 10.5q8 12 19.5 24.5t24.5 21.5q4 3 8 7.5t9 7.5q7 6 21 13q11 8 20 12.5t22 9.5l16 5q3 2 6.5 3.5t8.5 3.5q3 0 5 -0.5t4 0.5q4 1 7 2.5t8 2.5q2 1 5.5 0t6.5 0l5 3q8 2 18 2.5t20 2.5zM171 354q-3 -1 -6 -3t-6 -3
q-5 -2 -11 -3.5t-10 -4.5q-5 -3 -9 -10t-5 -13q-2 -6 -3.5 -10t-2.5 -9q-1 -2 -0.5 -4t0.5 -4q-2 -6 -3.5 -14t-2.5 -13q-1 -3 0 -7t0 -7l-1 -4l1 -4q0 -2 -0.5 -5t0.5 -5q1 -5 1.5 -10.5t2.5 -10.5q2 -14 5.5 -24.5t7.5 -20.5q8 -20 24 -36.5t36 -23.5q2 -1 4.5 -2t5.5 -2
q9 -2 23.5 -1t20.5 3q15 5 29.5 17.5t20.5 29.5q2 6 4.5 13t3.5 13q1 3 0 7t0 8q2 8 2 23t-2 23q-1 4 0 8.5t0 7.5q-2 8 -5 15.5t-6 15.5q-2 4 -4.5 8.5t-4.5 7.5q-1 2 -3 4l-4 4q-8 10 -16 17t-17 13q-2 2 -7 4t-9 4l-16 8q-4 1 -10 0t-11 0l-3 1.5t-3 0.5z" />
    <glyph glyph-name="seven" unicode="7" horiz-adv-x="424" 
d="M254 754q6 2 14.5 1t16.5 -2q11 -2 23 -1t22 -1l5 -3q8 -2 15 -2t9 -5q2 -9 0 -21.5t-4 -23.5q-1 -3 -0.5 -7t0.5 -6q-1 -2 -1 -5.5t-1 -8.5t-2.5 -9t-1.5 -8q0 -2 1 -3.5t1 -4.5q0 -1 -2 -5q0 -2 0.5 -4.5t-0.5 -4.5q0 -2 -1 -2.5t-1 -2.5q-1 -4 -0.5 -8t0.5 -8
q0 -1 -1 -2t-1 -3q-1 -4 0 -7.5t0 -7.5q0 -2 -1 -2t-1 -2q-1 -4 0 -8t0 -8l-4 -8q-2 -11 -1 -24t-1 -27q0 -2 -1.5 -4t-2.5 -5q-1 -2 0 -5t0 -6q0 -2 -1 -2.5t-1 -2.5q-2 -8 -1 -20t-1 -22q-1 -3 -2.5 -9.5t-1.5 -10.5q0 -2 1.5 -4.5t0.5 -5.5q0 -2 -1.5 -4.5t-1.5 -4.5
q0 -1 0.5 -2t0.5 -3t-1 -2.5t-1 -2.5q-1 -3 0 -6.5t0 -7.5q0 -1 -1 -1.5t-1 -2.5q-2 -6 0 -12.5t0 -9.5q0 -1 -2 -1t-2 -1t1 -2.5t1 -2.5t-2 -5q-1 -2 0 -6t0 -7q-1 -7 -1.5 -13.5t-2.5 -14.5q-1 -4 0 -7.5t0 -7.5t-2 -7.5t-1 -6.5q0 -2 0.5 -4t0.5 -4l-4 -15
q-2 -11 -2 -22.5t-2 -20.5q-1 -5 -0.5 -9.5t-1.5 -9.5q0 -5 -1.5 -8.5t-1.5 -7.5q0 -2 0.5 -3t0.5 -3q0 -4 -1.5 -8t-2.5 -9q-1 -4 0 -8.5t0 -8.5q-1 -7 -2.5 -13t-2.5 -13q-2 -5 -0.5 -9.5t0.5 -9.5l-7 -27q-1 -5 0 -9t0 -8q0 -4 -1.5 -7.5t-1.5 -7.5q-2 -8 -2.5 -15
t-2.5 -13q-2 -8 -12 -8h-18t-18 -1t-20 1q-8 2 -15.5 2t-14.5 2q-8 2 -10 2t-4 8q-1 4 -1 4.5t1 4.5t0 8t0 9l4 14q2 8 1 15.5t1 13.5q0 2 1 3t1 3q2 4 0.5 8t-0.5 9q2 7 3.5 13t2.5 13q1 5 0 8.5t0 8.5l4 16q0 2 -0.5 4t0.5 4q0 1 1 2t1 3q1 4 0 8t0 9l4 14q1 5 0 9t0 8
l4 17q1 5 0 9.5t0 9.5q0 2 1 2.5t1 1.5q1 5 0 9t0 9q0 2 1 2.5t1 2.5q2 10 1 19.5t1 19.5q1 4 2 9t0 9q-1 2 -3.5 6.5t-3.5 4.5q-2 1 -4 0.5t-4 -0.5q-4 1 -14.5 2.5t-18.5 -0.5q-7 -1 -23.5 -2.5t-25.5 0.5q-2 1 -2 1.5t-2 0.5q-3 1 -6.5 0.5t-6.5 -0.5q-11 2 -21.5 1
t-25.5 -1q-7 0 -12.5 -0.5t-10.5 0.5q-6 2 -10.5 4.5t-6.5 7.5q-1 5 0 10t0 10q-2 10 -2.5 31t1.5 35q1 5 2.5 10.5t6.5 7.5t11.5 1.5t14.5 1.5q5 0 7 1t6 0q10 -2 23 -2.5t27 0l28 1t26 0.5q9 0 18 -1t16 1q2 0 2.5 0.5t2.5 0.5q4 1 6.5 0.5t4.5 -0.5q5 2 10 6.5t6 8.5
q2 8 1 17t1 17q0 2 1 2.5t1 2.5q1 3 0 7.5t0 8.5q0 1 1 1.5t1 2.5q2 8 0 17.5t0 17.5q1 4 2 7l2 6q0 2 -1 4t-1 4q0 5 2 13.5t-3 10.5q-2 1 -9.5 2t-10.5 0q-16 -3 -43 -2.5t-48 0.5h-24.5t-12.5 10q-2 9 -2 20t-2 19t0.5 18t1.5 18q-1 5 -1 10.5t4 12.5q4 8 14 6.5t21 0.5
q2 0 4 2q5 1 8.5 0t8.5 0q10 2 25.5 1t26.5 1q2 0 2.5 0.5t1.5 0.5q14 3 27 0.5t25 -0.5q5 2 7.5 5.5t7.5 4.5z" />
    <glyph glyph-name="eight" unicode="8" horiz-adv-x="491" 
d="M232 783q7 1 16 -0.5t17 -3.5t15 -2t15 -2q7 -2 14.5 -7t14.5 -7q8 -2 14.5 -6.5t13.5 -9.5q3 -2 5.5 -6t5.5 -6q6 -2 10 -9q2 -5 8 -9.5t9 -9.5q9 -12 15.5 -28t11.5 -30q1 -3 0.5 -8.5t0.5 -10.5l4 -18q1 -2 0 -5t-2 -7q-1 -6 0 -12t0 -10q0 -3 -1.5 -5.5t-1.5 -4.5
q-2 -7 -1.5 -13.5t-0.5 -12.5q-1 -2 -1 -4t-1 -6q-1 -2 -2.5 -4t-2.5 -4q-1 -4 -0.5 -6.5t-0.5 -7.5l-1.5 -3t-0.5 -4q-2 -9 -6 -16.5t-6 -15.5q-1 -3 -2.5 -5t-3.5 -4q-2 -3 -3 -7t-4 -8q-5 -7 -9.5 -15t-9.5 -14q-2 -3 -5.5 -6t-3.5 -7q-1 -5 3.5 -12.5l7.5 -12.5
q5 -6 10 -15t10 -17q2 -2 3.5 -4t2.5 -4v-5q1 -1 1.5 -0.5t1.5 -0.5t1 -4t2 -5q3 -5 4.5 -8t3.5 -9q2 -8 6 -16.5t6 -16.5q2 -6 2 -10.5t1 -11.5l2.5 -5t1.5 -5q1 -3 0 -6.5t0 -7.5l3 -4q2 -8 0 -16.5t0 -17.5l2 -4q2 -7 1.5 -14t-1.5 -12q-2 -7 -1 -13.5t-1 -12.5l-3 -4
q-1 -4 0 -8.5t0 -7.5q0 -2 -1.5 -3.5t-2.5 -3.5q0 -2 0.5 -3.5t-0.5 -3.5q-1 -5 -4.5 -12t-5.5 -14v-4q-1 -5 -4.5 -8.5t-5.5 -8.5l-3 -11l-4 -2q-2 -2 -1.5 -4t-1.5 -4q-2 -5 -5.5 -8t-7.5 -8q-9 -12 -20.5 -21t-24.5 -18q-1 -1 -2.5 -1t-3.5 -1q-8 -5 -17.5 -10.5
t-20.5 -9.5q-5 -2 -8.5 -2t-8.5 -2l-12 -4l-12 -4q-5 -2 -11 -1t-12 -1q-13 -2 -20 -4q-3 -1 -6 0t-6 0q-2 -1 -8.5 -2t-11.5 0q-7 2 -13 1.5t-11 0.5q-5 2 -12.5 3.5t-13.5 2.5q-2 0 -4 -0.5t-4 0.5l-14 6q-4 2 -6.5 4t-5.5 4l-7 2q-2 1 -3 2.5t-3 3.5q-6 5 -13.5 10.5
t-12.5 11.5l-14 20q-4 6 -8 13t-6 13q-4 9 -6 19l-4 20l-5 14q-1 5 -0.5 12t-1.5 14q-1 5 -1 15.5v19.5q0 8 -1 17t1 14q0 2 1 6.5t2 7.5t0.5 6t-0.5 6q1 2 2.5 4.5t2.5 4.5q1 3 0.5 6.5t1.5 6.5q3 15 9 27.5t14 24.5l2 7l16 24l10 8l6 11q5 6 9.5 10.5l10.5 10.5q3 3 5 6.5
t6 5.5q11 8 17 15t16 14q5 4 11 8t4 10q-1 5 -6.5 9.5t-9.5 6.5q-7 5 -15 12t-13 15q-1 2 -3 4l-4 4q-2 3 -3 7t-3 8q-2 2 -3 2.5t-3 2.5q-2 5 -5 14t-5 14q-1 4 -2 7l-2 6q-1 4 -2 11t0 12t3 9t3 9l2 12q2 8 1 17t1 17q0 1 1 1.5t1 2.5q2 8 1 16.5t1 17.5q1 5 3 9t3 8
q0 2 -0.5 4t0.5 4q0 3 1.5 5.5t2.5 5.5l2 12q1 3 3.5 6t4.5 8q1 3 1.5 6.5t2.5 6.5q1 2 2.5 2.5t3.5 2.5q2 6 4 9q9 12 22.5 21.5t27.5 14.5q3 2 6 3.5t7 2.5q5 1 9.5 0.5t10.5 1.5q2 2 4 2q7 2 15 2t14 2zM208 303q-6 -5 -11.5 -10.5t-11.5 -10.5q-4 -3 -7 -5.5t-7 -7.5
l-10 -10t-8 -9q-6 -9 -13 -20.5t-11 -22.5l-5 -10q-4 -11 -5.5 -20.5t-3.5 -23.5q-2 -8 -0.5 -17t2.5 -13t0 -7.5t0 -6.5q1 -5 2.5 -11t3.5 -11q2 -8 9.5 -19t14.5 -16q4 -2 13 -7t13 -6q7 -2 17 -2t18 2t13.5 5.5t12.5 5.5q14 5 26 13.5t20 19.5q4 5 8 10.5t7 11.5
q3 7 6 13.5t5 13.5q4 11 4 23v26q0 8 1 17t-1 16q-1 7 -3.5 12.5t-4.5 11.5q-2 4 -2 7.5t-2 7.5q-5 14 -14 29t-17 26q-3 5 -9 14t-11 8q-2 -1 -5.5 -3.5t-6.5 -4.5zM218 669q-6 -5 -12 -14t-8 -18q0 -2 0.5 -4.5t-0.5 -4.5q0 -2 -1 -2.5t-1 -2.5q-2 -5 -1.5 -11.5
t-0.5 -12.5q0 -1 -1 -2t-1 -2q-2 -11 -1 -20t-1 -17q-1 -5 -2.5 -11.5t0.5 -12.5q1 -3 3.5 -7.5t4.5 -7.5q6 -8 14.5 -16.5t15.5 -13.5q4 -2 11 -4.5t12 -5.5q4 -4 5 -4t4.5 1.5t5.5 2.5q6 5 10.5 12t10.5 15q1 2 2.5 2.5t2.5 2.5q2 4 2.5 7.5t2.5 7.5q0 2 2 5t3 5
q2 3 2.5 6.5t1.5 5.5q2 8 2 16.5t2 16.5q2 2 2 3q2 5 -0.5 8.5t-3.5 6.5q-2 14 -8 25t-14 23q-2 3 -7 7.5t-7 6.5l-16 8l-3.5 3.5t-3.5 2.5q-4 1 -10 1t-8 -2z" />
    <glyph glyph-name="nine" unicode="9" horiz-adv-x="523" 
d="M207 752q5 1 10.5 0t8.5 -2t6.5 0t7.5 0q2 0 4 -2q3 0 6 0.5t6 -0.5q1 0 2 -0.5t2 -0.5q2 -1 5 -0.5t5 0.5q2 -1 7 -2t8 -3q11 -4 22.5 -10.5t21.5 -12.5q2 -2 3.5 -2t3.5 -1q5 -3 8.5 -7.5t7.5 -7.5q11 -8 20 -19q4 -5 8.5 -9.5t9.5 -10.5q1 -2 1.5 -4t2.5 -4
q2 -5 5.5 -9t5.5 -9q1 -1 0.5 -2t0.5 -2q0 -1 1.5 -1t1.5 -1q2 -2 1.5 -4.5t0.5 -4.5q2 -5 6 -10t6 -11q2 -4 2 -7.5t2 -7.5q4 -10 6.5 -19t5.5 -20q2 -5 2.5 -10.5t1.5 -11.5l2 -14q1 -2 2.5 -4.5t1.5 -5.5q0 -2 -0.5 -2.5t-0.5 -2.5t1.5 -4.5t1.5 -4.5q1 -5 0 -10t0 -10
q0 -1 1 -1.5t1 -2.5q2 -6 0 -16.5t0 -19.5q3 -14 3 -31t-3 -30q-1 -5 0.5 -11t-0.5 -11q0 -2 -1 -2.5t-1 -1.5q-2 -9 -1 -18.5t-1 -17.5q0 -1 -1 -2t-1 -2q-1 -5 0.5 -11t-0.5 -11q-2 -7 -3 -17.5t-3 -18.5q0 -2 -1.5 -4.5t-2.5 -5.5q-2 -7 -2 -13t-2 -14q-1 -8 -4.5 -15
t-5.5 -15q0 -1 0.5 -2t-0.5 -3q-2 -7 -5.5 -14t-6.5 -14l-3 -15q-2 -5 -4.5 -9t-3.5 -9q-2 -3 -4 -6.5t-4 -5.5q-5 -7 -8.5 -14.5t-7.5 -13.5q-1 -2 -1 -3.5t-2 -3.5l-12 -16q-3 -5 -11 -12.5t-13 -11.5q-20 -15 -43 -24q-5 -2 -8.5 -4t-8.5 -4q-7 -2 -14 -5t-15 -5
q-2 -1 -5.5 0t-5.5 0l-14 -4q-6 -2 -15 -1t-17 -1q-2 0 -2.5 -1t-2.5 -1q-3 0 -4 0.5t-4 1.5q-10 2 -20.5 0t-21.5 0l-17 2l-12 4q-3 1 -6 0t-6 0q-5 1 -9 3t-9 3q-6 1 -12 4.5t-12 5.5q-9 3 -17.5 8t-15.5 10q-3 2 -5 4.5t-4 4.5q-5 4 -11 8.5t-6 11.5q0 5 3 12t5 12
t5.5 10.5t8.5 12.5q6 9 11 18.5t13 14.5q11 8 19.5 2t16.5 -11q5 -3 11.5 -5.5t13.5 -4.5q7 -3 13.5 -6.5t13.5 -5.5q2 0 3.5 0.5t3.5 -0.5q1 0 2 -1t2 -1q3 -1 6.5 0t8.5 0q13 -3 28 0q3 1 6 0t6 0l12 4l12 4q5 1 10.5 4t10.5 6q6 4 13.5 10t12.5 12q10 14 19.5 28.5
t14.5 30.5q2 3 2 7t2 8l4 10t4 11t4 16l4 15q1 4 1 8t1 6q1 5 -0.5 17.5t-3.5 14.5q-1 0 -5 -2q-2 -1 -3 -2q-6 -2 -10.5 -1.5t-10.5 -0.5l-4 -3q-8 -2 -18 -0.5t-19 -0.5l-6 -1.5t-7 1.5q-6 1 -12.5 -0.5t-13.5 0.5q-1 0 -1.5 0.5t-1.5 0.5q-4 1 -7 0t-6 0l-4 3
q-6 2 -11.5 1t-12.5 1q-2 0 -3.5 1.5t-3.5 2.5q-4 1 -8.5 0.5t-8.5 0.5q-2 1 -3.5 2.5t-3.5 2.5q-12 5 -24.5 11t-24.5 14q-5 3 -8 7t-7 9q-11 10 -16 18q-4 5 -8 9t-8 10q-2 4 -4 9l-4 10q-1 5 -3.5 9t-4.5 9t-4 11t-3 12q-1 2 -0.5 3.5t0.5 3.5l-5 15q0 2 0.5 4t-0.5 4
q0 2 -2 4q-1 5 0 9t0 7q0 2 -2 4q0 2 0.5 5t-0.5 5q0 2 -0.5 6.5t0.5 9.5l4 18q2 5 0.5 9.5t-0.5 8.5t2.5 7t2.5 6q1 7 2 13.5t3 12.5q1 2 0.5 2.5t-0.5 2.5q1 5 4.5 11t5.5 12q5 13 12.5 26t15.5 26q3 5 7.5 8.5t9.5 7.5q4 5 7.5 9.5t7.5 6.5q9 6 19.5 13.5t21.5 11.5l15 3
q3 2 7 3.5t9 3.5q7 1 14.5 0t14.5 1l4 2q3 1 7 1t6 1zM191 624q-5 -2 -9.5 -3.5t-8.5 -4.5q-10 -7 -17.5 -20.5t-12.5 -25.5q-3 -8 -6 -17t-5 -18q-1 -4 0 -8t0 -8l-3 -4q-1 -5 0.5 -7t2.5 -7q1 -12 4 -22q0 -2 1 -3t2 -3q6 -15 17 -30q8 -11 18.5 -17t22.5 -11l7 -3.5
t7 -2.5q2 -1 4 -0.5t4 0.5q7 -2 18 -3t19 1q5 1 11 1.5t11 2.5q5 1 8 3t8 3h4q4 1 10 4t11 6q2 2 4.5 6t3.5 7q2 10 1 26t-3 26q0 2 0.5 4t-0.5 4q-2 8 -5 15.5t-5 15.5q-1 7 -3 10t-4 9q-8 16 -16.5 28t-19.5 23q-5 5 -9.5 9t-9.5 8l-16 8q-2 2 -2.5 3t-2.5 1q-3 1 -8 1h-7
q-10 0 -14.5 -2.5t-11.5 -4.5z" />
    <glyph glyph-name="colon" unicode=":" horiz-adv-x="269" 
d="M91 159q15 0 26 -3q15 -4 27 -18t17 -27q2 -6 2.5 -9.5t1.5 -11.5q2 -8 3 -20t-1 -22q-4 -16 -9 -30.5t-17 -22.5q-4 -3 -9.5 -6.5t-10.5 -4.5q-3 -1 -6 0t-6 0q-7 -2 -14 -3t-14 1q-2 2 -3 2q-4 1 -8 0t-9 0t-9.5 3.5t-9.5 4.5q-14 5 -26.5 15.5t-16.5 26.5
q-1 4 -0.5 8.5t-0.5 9.5q-1 4 -1.5 4.5t1.5 5.5q1 5 1 11t2 12q2 5 6 10t6 10q2 2 1.5 3.5t1.5 3.5l5 5l5 5q4 4 6.5 6t6.5 5q2 2 4 4.5t5 4.5l6 2q5 4 11.5 8t13.5 6q3 1 7 1h5zM86 588q4 1 9.5 1.5t9.5 -0.5q8 -2 16.5 -3t13.5 -6q10 -7 18 -20t10 -27q2 -7 2 -13.5
t2 -11.5q1 -3 0 -6.5t-2 -6.5q-2 -12 -2.5 -24.5t-5.5 -20.5q-1 -2 -3 -3.5t-4 -3.5q-3 -4 -7 -5.5t-9 -4.5q-1 -1 -1.5 -2t-2.5 -2t-5 0t-6 0q-1 0 -1.5 -1t-2.5 -1q-5 -2 -15.5 -2t-16.5 2q-1 0 -1.5 1t-1.5 1q-3 1 -6.5 0.5t-6.5 -0.5q-3 1 -7 3t-8 3l-10 4t-10 5
q-3 2 -7.5 4.5t-6.5 6.5l-3 7q-2 4 -4 8.5t-3 9.5q-1 2 -0.5 5t0.5 5q-1 3 -1 3.5t1 4.5q0 3 -0.5 6.5t0.5 6.5q3 18 13 33q3 4 10.5 11.5t12.5 10.5q4 3 6.5 4.5l7.5 4.5t10 7t9 5t9 1z" />
    <glyph glyph-name="semicolon" unicode=";" horiz-adv-x="269" 
d="M79 154q9 2 19 1.5t17 -2.5q19 -5 33.5 -16t21.5 -29q2 -4 4.5 -6.5t3.5 -5.5q2 -3 1.5 -6t0.5 -6q3 -15 5 -33.5t-1 -34.5q0 -2 -2 -4q0 -2 0.5 -4t-0.5 -4q0 -2 -1 -2.5t-1 -2.5q-2 -5 -1.5 -9t-0.5 -9q-2 -11 -6.5 -21.5t-7.5 -21.5q-1 -4 -3.5 -9l-4.5 -9
q-4 -6 -9.5 -12.5t-9.5 -13.5l-7 -11q-1 -2 -3 -3.5t-4 -3.5q-4 -5 -9 -11.5t-10 -9.5q-6 -5 -11 -7.5t-12 -7.5q-2 -2 -3 -3.5t-3 -2.5q-8 -2 -13.5 -0.5t-10 4.5t-8 7.5t-6.5 7.5t-7.5 6.5t-6.5 7.5q-5 7 -14 14.5t-11 16.5q-2 10 6 16t14 11t13.5 13t12.5 14q2 3 5 10
t3 11q-1 1 -1 3q0 1 -0.5 2t-0.5 2q-3 6 -9.5 7.5t-13.5 5.5q-3 2 -7.5 7t-6.5 8q-1 1 -1 2.5t-2 3.5q-5 8 -7.5 14t-4.5 17t-1.5 22.5t3.5 22.5q2 4 4 7t4 7q2 2 2 3.5t1 3.5q2 2 3 3.5l3 4.5q4 8 13 12.5t17 9.5q15 10 32 13zM83 603q6 2 12 1t11 -2l18 -2q2 -1 7.5 -3.5
t7.5 -4.5q4 -2 10.5 -8.5t10.5 -12.5l10 -16q5 -13 8 -29.5t0 -33.5q0 -2 -2 -4q-1 -5 -0.5 -9t-1.5 -9q-2 -7 -8 -15t-13 -13q-5 -4 -11 -9t-13 -7h-9q-1 0 -1.5 -1t-1.5 -1q-5 -1 -17 -1.5t-18 1.5q-1 0 -1.5 1t-2.5 1q-2 1 -5.5 0t-5.5 0q-5 1 -10.5 4.5t-11.5 5.5
q-16 5 -29 20t-16 32q-1 5 0.5 10.5t1.5 8.5q1 2 0.5 4.5t-0.5 5.5q1 4 3 9t3 9q2 4 2.5 8t1.5 8l2 4t3 5q5 11 15.5 19.5t20.5 14.5q2 2 4.5 3.5t4.5 2.5q5 2 10.5 2t10.5 1z" />
    <glyph glyph-name="less" unicode="&#x3c;" horiz-adv-x="426" 
d="M266 607q8 1 14 -4.5t12 -10.5q2 -2 3.5 -4.5t3.5 -3.5q9 -5 16.5 -13.5t17.5 -15.5q5 -4 11 -13t1 -18q-2 -4 -6 -7.5t-6 -8.5q-2 -4 -5.5 -7t-5.5 -6q-1 -1 -1 -4q-3 -4 -7.5 -6.5t-7.5 -7.5q-4 -5 -8.5 -10.5t-8.5 -10.5t-8.5 -8.5t-7.5 -9.5q-4 -7 -14 -15t-16 -15
q-7 -7 -14.5 -16t-15.5 -14q-7 -5 -13 -10.5t-11 -9.5q-5 -3 -11.5 -10t-6.5 -10q-1 -7 5.5 -11.5t9.5 -9.5l6 -12q5 -5 12 -11t13 -13l14.5 -14.5t13.5 -11.5q5 -3 8.5 -7t8.5 -7q2 -2 3.5 -4.5t3.5 -3.5q5 -3 7 -5t7 -4q3 -2 6.5 -6t7.5 -7q5 -2 9 -7.5t9 -9.5
q5 -5 10 -9.5t8 -8.5q5 -8 3 -15.5t-8 -13.5t-13 -11.5t-12 -8.5q-11 -8 -18 -17.5t-18 -17.5l-8 -4t-12 0q-4 1 -9.5 5t-10.5 8q-2 1 -3 3t-3 3q-14 8 -25 20.5t-25 22.5q-7 5 -15 14.5t-15 16.5q-8 8 -17 15.5t-14 17.5q-4 6 -12 11t-10 10q-5 10 -13 16.5t-13 16.5
q-2 5 -7.5 9t-8.5 9q-2 4 -7 7t-8 8q-2 2 -3.5 5t-3.5 6q-5 7 -11.5 11.5t-9.5 9.5q-2 2 -3 6.5t-1 5.5q-1 9 7.5 16.5t14.5 13.5q7 7 12.5 12t12.5 10q10 7 18 18.5t19 17.5q6 3 11.5 9.5t12.5 9.5q3 2 7 7t7 8q8 8 17 15.5t18 16.5q11 11 20.5 21.5t20.5 21.5q20 20 35 39
q2 4 7.5 9t9.5 8q3 3 8.5 5.5t8.5 3.5z" />
    <glyph glyph-name="equal" unicode="=" horiz-adv-x="574" 
d="M386 316q2 0 3 -0.5t4 -0.5q8 -2 20 -1t24 1t27.5 1t22.5 -4q2 -2 4.5 -5.5t3.5 -5.5q2 -8 -2 -16.5t-2 -17.5q0 -2 1 -3t1 -3t-1.5 -4.5t-2.5 -6.5t0 -9t0 -10q0 -2 -1 -3.5t-1 -2.5q0 -2 1 -3t1 -3q0 -4 -2 -9t-5 -7q-2 -1 -6.5 -1t-6.5 -1q-17 -3 -39 0t-37 0
q-2 0 -3 -1t-3 -1q-3 -1 -7.5 0t-8.5 0q-4 -2 -6 -2q-11 -2 -22 -1t-22 -1q-32 -5 -72.5 -4.5t-77.5 0.5h-57q-15 0 -30 -1t-27 1q-3 1 -5.5 2t-5.5 0q-12 -2 -25.5 0t-16.5 14q0 2 0.5 5.5t-0.5 5.5q-1 6 -2 13t1 15q1 14 0 25q-2 12 0 22t10 12q3 0 6 -0.5t5 0.5q2 0 3 1
t2 1q8 2 17 1t19 -1h70q9 0 18 1t17 -1q2 0 3 -1t3 -1q5 -2 12 -1.5t12 1.5q2 0 3 1t3 1q4 1 8 0t8 0q6 1 11.5 2t10.5 0q15 -3 35 0q7 1 14 0q4 -1 6.5 0t6.5 2q14 2 29 1t28 1q1 0 5 2q4 1 9.5 1h8.5zM174 491q5 1 12 0t12 -2q11 -2 24 -1t25 1h99q13 0 26 -1t24 1
q16 3 30 0q11 -2 25 -1t18 -7l2 -12q2 -14 0 -30t0 -30q1 -4 2.5 -7.5t-0.5 -8.5q0 -4 -2 -8.5t-4 -6.5q-1 -1 -3.5 -0.5t-6.5 -0.5q-5 -1 -6 -1t-6 1q-12 2 -27 1t-31 -1h-115h-34t-30 -2q-5 -1 -11.5 0t-11.5 0q-11 -2 -27 -2h-32h-31t-27 -2q-12 -2 -26 0.5t-16 11.5
q0 2 0.5 4t-0.5 4l-4 17q-1 10 0.5 18.5t-0.5 19.5q0 3 -1.5 5t-0.5 8q0 2 1 3t1 3q2 6 2.5 10t6.5 6q8 2 15 1t15 1q2 0 3 1t3 1q12 2 27.5 1t27.5 1q8 1 17 0q5 -1 9.5 0t9.5 2q4 1 9 1t7 1z" />
    <glyph glyph-name="greater" unicode="&#x3e;" horiz-adv-x="401" 
d="M75 598q3 0 8 -1t8 -3q16 -10 30 -22.5t29 -23.5q6 -5 11.5 -11t11.5 -13q11 -12 22 -22.5t24 -23.5l83 -84q4 -5 9 -11t10 -8q8 -5 15.5 -15t-0.5 -22q-5 -7 -12.5 -13t-12.5 -13l-6 -8l-19 -26q-7 -9 -17 -17.5t-17 -18.5q-2 -3 -5 -5.5t-5 -6.5t-5.5 -7t-7.5 -7
q-2 -3 -5.5 -5.5t-5.5 -5.5q-7 -12 -15 -19t-18 -21l-14 -15q-3 -5 -6.5 -8t-7.5 -8q-2 -3 -5 -5t-5 -6q-1 -1 -1 -3q-2 -3 -4.5 -4.5t-4.5 -3.5q-4 -6 -8.5 -12t-9.5 -12l-4 -4l-4 -4q-5 -7 -9.5 -12t-17.5 -2q-2 1 -3 2.5t-3 3.5q-3 2 -7.5 4t-7.5 4q-2 2 -2.5 3t-2.5 2
q-5 3 -7 5t-7 4q-5 4 -9 10t-11 11q-6 5 -14 11.5t-6 17.5q2 4 7 9q4 8 6 10l3.5 3.5l3.5 3.5l11 16q4 5 9 9.5t9 10.5q5 6 10 11.5t9 11.5q5 8 12.5 13.5t12.5 12.5q5 8 10.5 14t10.5 14q4 5 10 10.5t11 11.5q0 3 1 3q5 8 14 15.5t11 14.5t-2 15q-5 6 -12.5 13t-13.5 15
q-3 5 -9.5 10t-11.5 8t-9.5 9t-9.5 11q-6 6 -11.5 11t-11.5 9l-14 13q-5 3 -9.5 8t-8.5 10q-5 5 -9 10.5t-9 7.5q-7 4 -14 11t-9 15q-3 14 6.5 20.5t14.5 14.5q8 12 23 27q6 6 11 8q3 2 5 5.5t4 4.5q2 2 5 2.5t5 1.5z" />
    <glyph glyph-name="question" unicode="?" horiz-adv-x="484" 
d="M227 759q5 2 10.5 0t10.5 -1q2 0 2.5 1t2.5 1t2 -1t2 -1q6 -2 11 -1.5t9 -0.5q2 0 2.5 -1t1.5 -1q2 -1 5 0t5 0q7 -2 13 -4.5t14 -5.5q11 -5 22.5 -13t20.5 -17q8 -9 15 -17.5t13 -20.5q4 -8 6.5 -14t5.5 -14q2 -5 4 -15q2 -5 1 -10.5t1 -10.5q1 -4 2.5 -17.5t-0.5 -19.5
q-1 -3 -1 -3.5t1 -3.5q1 -4 -1 -6.5t-3 -7.5q-1 -4 0 -8t0 -8l-4 -22t-4 -23q-1 -3 -2 -6.5t-2 -8.5q-1 -6 -2.5 -11t-3.5 -12q-2 -8 -5.5 -16.5t-6.5 -16.5q-4 -10 -8.5 -19.5t-7.5 -20.5q-1 -3 -3.5 -7t-4.5 -8q-2 -5 -2 -9t-2 -6l-3 -6t-3 -8q-1 -4 -5.5 -12.5
t-6.5 -14.5q-2 -8 -7.5 -16.5t-7.5 -16.5q-5 -14 -11 -26t-11 -26q-3 -8 -7.5 -15.5t-6.5 -15.5q-2 -4 -2 -7t-2 -6l-4 -8t-4 -9q-3 -8 -5.5 -18t-4.5 -12q-1 -1 -2.5 -0.5t-2.5 -0.5l-7 -4q-8 -2 -19.5 0t-19.5 4q-5 2 -8.5 1.5t-7.5 1.5q-9 3 -24 4.5t-19 9.5
q-3 6 -0.5 12t4.5 13v6q1 8 4.5 14t5.5 14v4q1 4 2.5 7.5t3.5 8.5q1 2 1 4.5t1 4.5l6 12q2 8 4.5 16t5.5 16q2 6 6 12t6 12l2 9q1 4 3.5 7.5t4.5 7.5q1 2 1 4.5t1 4.5q7 14 14.5 27.5t13.5 27.5q4 11 9.5 21.5t9.5 21.5q2 6 4 13l4 14q2 4 3.5 7.5t2.5 8.5t0.5 7.5t1.5 7.5
q1 4 3 9t3 10q1 3 0 6.5t0 8.5q0 1 1 1.5t1 1.5q1 3 0 6.5t0 7.5q2 6 2 16t-2 16q-1 2 0 5.5t0 6.5q-2 7 -10 18.5t-14 16.5l-8 4l-10 4q-2 0 -5 -0.5t-5 0.5q-7 1 -19 0q-2 -1 -3.5 -2t-3.5 -2q-5 -2 -9.5 -3t-9.5 -3q-4 -2 -10 -5.5t-10 -6.5q-8 -5 -13.5 -11.5
t-13.5 -13.5q-5 -5 -9.5 -10t-8.5 -10q-2 -3 -4.5 -4.5t-4.5 -4.5q-4 -5 -11.5 -15t-12.5 -12q-13 -4 -18.5 3.5t-12.5 12.5q-7 4 -13.5 11t-12.5 15q-5 8 -13 14.5t-10 16.5q-3 11 1.5 15.5t9.5 11.5l9 16q3 4 6.5 7t6.5 8q3 4 7.5 7.5t8.5 7.5q3 4 8 8.5t9 7.5q5 3 8.5 7
t8.5 8l15 8q9 7 17.5 12.5t18.5 9.5q7 2 13 5t14 5q5 2 8.5 2t8.5 2q1 0 2 1t2 1q3 1 6.5 0t6.5 0q5 2 13 2.5t15 2.5zM167 97q11 2 29.5 1.5t26.5 -2.5q12 -3 22.5 -14.5t12.5 -25.5q2 -7 2 -20.5t-2 -21.5t-5.5 -15.5t-8.5 -14.5q-2 -2 -8 -6t-8 -6q-4 -2 -9.5 -4.5
t-8.5 -3.5q-5 -1 -9.5 0t-9.5 0q-3 -1 -4.5 -2t-4.5 0q-1 0 -1.5 1t-1.5 1q-6 1 -12.5 0t-11.5 0t-16.5 7t-16.5 10t-9 13.5t-6 17.5q-2 6 -1 15.5t3 14.5q2 9 11 23t17 19l6 2q7 5 11.5 7t12.5 4z" />
    <glyph glyph-name="at" unicode="@" horiz-adv-x="833" 
d="M362 651q8 2 20.5 1.5t18.5 -2.5q10 -2 21.5 -1t20.5 -1l16 -4q8 -2 16 -3t15 -3q8 -3 15.5 -5t14.5 -5l11 -4q16 -5 36 -17q5 -4 11 -6.5t11 -6.5q2 -1 2.5 -3t2.5 -3q8 -3 13.5 -8.5t12.5 -10.5q8 -5 16.5 -12t12.5 -13l8 -14q4 -5 8.5 -9t7.5 -9q1 -2 1 -3t2 -3
q21 -33 35 -75l4 -14q2 -8 3 -17t3 -18q0 -1 2 -9q2 -13 0.5 -26.5t1.5 -25.5q1 -4 2 -6l2 -4q0 -3 -0.5 -4.5t-1.5 -3.5t0 -5t0 -5q0 -2 -1 -2.5t-1 -2.5q-2 -4 -2 -9.5v-9.5q0 -2 1 -3t1 -3l-4 -18q-1 -2 -0.5 -3t0.5 -3q-1 -4 -3 -8t-3 -8q0 -2 0.5 -4t-0.5 -4
q0 -1 -1.5 -1t-1.5 -2l1 -3q-1 -3 -3 -8.5t-4 -7.5q0 -2 -1 -1.5t-2 -1.5q-2 -2 -1.5 -4.5t-0.5 -4.5q-5 -12 -13 -22t-14 -21q-5 -8 -11 -16.5t-14 -13.5q-2 -1 -4 -2.5t-3 -1.5h-3q-2 -1 -2 -2.5t-2 -2.5q-2 -2 -4.5 -2.5t-5.5 -2.5q-19 -12 -47 -20q-3 -1 -5.5 -2
t-4.5 -2t-5 0t-5 0q-1 0 -1.5 -1t-2.5 -1q-3 -1 -7 0t-8 0q-6 -1 -19 -2.5t-20 0.5q-2 1 -2 1.5t-2 0.5q-7 2 -12.5 1t-12.5 1q-5 1 -8 3t-8 3l-5 2.5t-5 3.5q-3 2 -7 6.5t-6 6.5t-3 6.5t-8 2.5q-2 -1 -4 -3.5t-4 -4.5q-5 -3 -12 -6.5t-14 -5.5q-5 -2 -11.5 -5.5t-11.5 -4.5
q-3 -1 -6 -0.5t-6 0.5q-13 -2 -30.5 -2t-29.5 2q-3 1 -6 0t-6 0t-6 2.5t-8 3.5q-11 3 -21 10q-5 3 -10 7t-10 7q-2 2 -6 5.5t-6 6.5q-6 8 -11 15.5t-9 18.5q-3 8 -6.5 18.5t-5.5 20.5q-2 8 0 17t0 19q-1 2 -1.5 2.5t-1.5 2.5q0 2 1.5 3t1.5 2q2 8 1 16t1 16q2 11 5 20.5
t7 20.5q4 13 11 24t15 22q5 8 14 14.5t18 12.5q9 5 22 9q5 2 9.5 4.5t10.5 3.5q4 1 7.5 0t7.5 0q1 0 1.5 1t2.5 1q2 1 5.5 0t5.5 0q2 0 2.5 1t1.5 1q5 1 9 0t9 0q2 0 2.5 1t1.5 1q2 1 4 0t7 -2q4 -1 7.5 0t5.5 0q2 0 2.5 -1t1.5 -1q4 -1 8 0t8 0q3 -1 9.5 -2t10.5 0q5 2 8 7
t9 7q8 2 16.5 2h19.5q8 0 15 1t13 -1q2 -1 2 -1.5t2 -0.5q6 -1 13 -0.5t13 0t10.5 -2.5t5.5 -8q1 -3 0 -6.5t0 -6.5l4 -17q1 -4 -0.5 -5.5t-1.5 -4.5t2 -5.5t3 -5.5q1 -4 -0.5 -6t-2.5 -6q-1 -5 0.5 -10.5t-0.5 -11.5q-1 -5 -2 -13.5t0 -13.5q1 -3 1 -3.5t-1 -5.5t0.5 -14
t-0.5 -15q0 -2 -1.5 -6.5t-0.5 -8.5q2 -7 4 -15t10 -5q10 3 20 13t15 21l2 10q1 3 3 6t3 7q2 12 3 21t1 25q0 7 0.5 13.5t-0.5 11.5q-3 14 -6 28.5t-8 27.5q-4 10 -10 20.5t-14 21.5q-11 17 -27.5 30t-33.5 24q-2 1 -3.5 1t-3.5 2q-5 3 -8 4t-8 3q-8 3 -13.5 5.5t-13.5 4.5
q-5 1 -9.5 3.5t-9.5 4.5q-6 2 -13.5 1t-15.5 1q-5 1 -11 2t-11 0q-2 0 -2.5 -1t-1.5 -1q-8 -2 -16 -1t-16 -1q-2 -1 -3.5 -2t-3.5 -2q-3 -1 -6.5 0t-6.5 0q-4 -1 -7.5 -3.5t-7.5 -4.5l-9 -2q-2 -1 -3.5 -2t-3.5 -2t-4.5 -1t-4.5 -1q-14 -5 -28 -14q-7 -5 -13.5 -10.5
t-14.5 -9.5q-2 -1 -3.5 -3t-3.5 -4q-9 -7 -20 -17.5t-17 -19.5q-4 -5 -8.5 -8.5t-7.5 -8.5q-1 -1 -0.5 -2t-0.5 -2l-3 -5q-3 -6 -7.5 -11t-8.5 -10l-8 -16q-2 -5 -4 -9l-4 -8q-1 -2 -1 -4.5t-1 -4.5q-2 -6 -6 -14t-6 -17q0 -2 0.5 -3.5t-0.5 -2.5q-1 -7 -4.5 -14t-5.5 -15
l-3 -24q-2 -5 -0.5 -11t0.5 -11q-3 -3 -3 -4q-2 -6 0 -12t3 -10q0 -3 0.5 -6t0.5 -5q2 -8 1 -15.5t1 -14.5l2 -9q1 -5 4 -10t4 -10q2 -6 3 -10.5t3 -9.5q2 -4 4 -7.5t4 -8.5q5 -14 12.5 -26t15.5 -23l4.5 -4.5l4.5 -4.5q9 -13 22 -25t26 -21q2 -1 2.5 -2.5t2.5 -2.5l7 -6
q12 -8 28 -17t32 -15q8 -3 14.5 -7t15.5 -6l19 -5q5 -1 11.5 -3.5t11.5 -3.5q2 -1 4 -0.5t4 0.5l5 -3q3 -1 7.5 0t9.5 0q6 -1 16 -1.5t19 1.5q4 1 7 0.5t5 -0.5q6 2 14 5t13 5q8 3 16 5.5t16 4.5q10 4 18.5 7.5t20.5 6.5q8 2 11.5 -1t6.5 -11q2 -5 4 -9t2 -7q0 -2 -1 -3
t-1 -3q1 -2 2 -1.5t2 -1.5t0 -4.5t0 -6.5l4 -11v-6q1 -3 3 -6t3 -6q2 -7 2.5 -14.5t-2.5 -13.5q-5 -10 -22 -16t-30 -11q-4 -1 -8 -2.5t-9 -2.5q-2 -1 -5 -0.5t-5 0.5l-5 -3q-7 -2 -15.5 -3t-15.5 -3q-2 0 -5 0.5t-5 -0.5q-1 0 -1.5 -0.5t-1.5 -0.5q-5 -2 -11.5 -0.5
t-11.5 0.5q-4 -1 -11.5 -1.5t-16 -0.5t-16.5 0.5t-12 1.5t-9.5 0t-8.5 0q-1 0 -1.5 0.5t-1.5 0.5q-3 1 -6.5 0.5t-6.5 -0.5q-2 1 -5.5 1t-7.5 1q-6 2 -11.5 3.5t-10.5 3.5q-3 0 -6 -0.5t-6 0.5q-7 1 -13 3t-13 4q-6 2 -11.5 4t-13.5 4q-3 3 -6 4q-7 2 -14 5.5t-15 8.5
q-8 4 -15.5 7.5t-14.5 8.5q-5 3 -11 6t-11 6q-2 1 -2.5 2.5t-2.5 3.5l-16 8q-4 3 -8 8t-9 8q-5 2 -7 7.5t-6 7.5l-8 7q-4 6 -9.5 10t-9.5 10q-5 6 -9.5 11t-8.5 11q-4 5 -6.5 11t-6.5 11q-2 4 -4 8.5t-5 9.5q-5 6 -9.5 15.5t-6.5 17.5q-2 7 -4 12.5t-4 13.5t-5 14.5t-5 14.5
q0 2 0.5 4t-0.5 4q-1 5 -2.5 8.5t-3.5 8.5q-1 6 -0.5 10t-0.5 10l-5 16q-2 11 -0.5 23t-1.5 23q-2 8 -2.5 27t1.5 29q0 2 0.5 5t0.5 7q2 8 2 15t2 14q1 5 1 8.5t2 8.5q0 2 1.5 4.5t1.5 4.5q2 11 4 20.5t4 19.5t7.5 19.5t8.5 19.5q2 3 2 6.5t2 6.5q5 12 13.5 26t15.5 25
q2 3 3.5 6.5t3.5 7.5q5 8 13 15t14 15q4 5 8 8.5t6 7.5q4 6 11 12q5 3 9.5 7.5t9.5 8.5q8 5 14 12.5t14 12.5t18 10t19 11q7 4 13.5 7.5t15.5 5.5q3 1 6 3t7 3l35 12q5 2 10 3.5t10 2.5q6 1 11.5 0.5t10.5 1.5q2 0 2.5 1t2.5 1q11 2 22 2.5t22 2.5zM331 278q-3 -2 -6 -6
t-5 -6q-2 -3 -3 -9.5t-1.5 -14t-0.5 -14.5t1 -11q4 -17 22 -23.5t37 -1.5q5 1 11 4.5t10 5.5q3 2 6.5 4.5t5.5 5.5q5 6 4 13.5t1 16.5q1 4 1.5 11t-1.5 13q-2 4 -11 9t-17 7q-5 1 -7 2l-4 2q-5 1 -10.5 1.5t-7.5 -0.5q-15 -1 -25 -9z" />
    <glyph glyph-name="A" unicode="A" horiz-adv-x="495" 
d="M192 751q3 0 5 -1t7 -3q3 -1 6.5 0t6.5 0q5 -1 8.5 -3t7.5 -3q3 -1 6.5 0t5.5 0l9 -4q8 -2 15 -2t12 -4q4 -4 2 -14q-1 -5 1 -8t5 -5.5t6 -4.5t4 -6q0 -2 -0.5 -3.5t0.5 -3.5q1 -4 3 -7.5t3 -6.5q1 -5 0.5 -9t1.5 -9l8 -27q2 -7 2 -14t2 -15q0 -3 1.5 -5.5t1.5 -5.5
q2 -5 1.5 -8.5t0.5 -7.5t3.5 -7t3.5 -7t0.5 -8t0.5 -8q2 -4 2.5 -9.5t1.5 -10.5q2 -5 3.5 -10.5t2.5 -11.5q1 -2 0.5 -3t-0.5 -3q2 -5 3.5 -8.5t2.5 -8.5v-6l2.5 -5t1.5 -5l6 -29l2 -14q2 -7 4 -13.5t4 -13.5q1 -2 0.5 -4t-0.5 -4q1 -4 3 -7t3 -7q1 -2 0.5 -3.5t-0.5 -3.5
l4.5 -13.5t3.5 -12.5q1 -2 0 -5t0 -5q1 -5 2 -8.5t2 -9.5q1 -5 3 -8t3 -7v-7q1 -5 3 -9t3 -9q3 -14 5.5 -27.5t6.5 -26.5q2 -5 3 -12.5t3 -12.5q0 -2 1.5 -3.5t1.5 -3.5q1 -2 0.5 -3.5t-0.5 -2.5q1 -3 2.5 -5.5t2.5 -4.5q2 -7 2 -13t2 -12q0 -2 1.5 -2.5t1.5 -2.5
q1 -2 0.5 -4t-0.5 -4q2 -8 5 -15t5 -15l2 -12l3 -10q1 -8 4 -13.5t5 -13.5v-6q1 -5 3.5 -11t0.5 -11q-1 -2 -5 -5t-8 -4q-3 -1 -7 0t-8 0q-2 -1 -2.5 -2t-1.5 -2q-3 -1 -6 0t-6 0q-2 -1 -2.5 -2.5t-2.5 -1.5q-2 -1 -5 0t-6 0q-2 -1 -3 -2.5t-3 -1.5q-2 -1 -5 0t-6 0
q-2 -1 -4 -2.5t-4 -1.5q-3 -1 -6.5 -0.5t-6.5 0.5q-6 -2 -11.5 -1t-8.5 6v4.5t-1 4.5q-2 5 -5 12t-5 13q-5 12 -7 24t-7 25q-3 5 -6 13q-5 14 -9 26t-18 15q-2 1 -3.5 0.5t-3.5 -0.5l-4 3q-6 2 -13 1t-15 1q-1 0 -3 2q-5 1 -12.5 -0.5t-13.5 0.5q-2 0 -4 2q-3 0 -7.5 -1
t-8.5 1q-1 0 -2 0.5t-2 0.5q-3 1 -7 0.5t-9 -0.5l-6 2t-5 0q-5 -1 -9.5 -8.5t-6.5 -15.5q0 -2 0.5 -2.5t-0.5 -2.5l-6 -17q-2 -8 -2 -13t-2 -12q0 -3 -2.5 -7.5t-3.5 -9.5q0 -2 0.5 -4t-0.5 -4l-6 -30l-4 -20q0 -2 -3.5 -12t-5.5 -12q-3 -2 -8.5 -2t-12.5 1t-13.5 2.5
t-10.5 2.5q-2 0 -4 -0.5t-4 0.5q-1 0 -1.5 1t-1.5 1q-5 2 -10 1.5t-10 0.5q-13 2 -25.5 3t-12.5 14q0 5 1 9.5t2 9.5q1 4 0 8t0 8q1 3 2.5 6t2.5 6q0 2 -0.5 5t0.5 5q1 8 3 13.5t4 13.5q1 2 0.5 4.5t-0.5 4.5l2 8t2 10q2 5 3.5 9.5t2.5 9.5q1 2 0.5 4t-0.5 4q1 2 2 4.5
t2 5.5l2 16q1 5 3 9t3 8l8 35l4 11l6 20q2 10 4 22q2 11 5.5 21.5l6.5 19.5q2 7 3 14.5t3 13.5l14 50q2 5 2 10t2 12q2 8 4 15t4 17q2 13 6.5 25.5t7.5 25.5q2 9 3.5 18.5t3.5 18.5l3 4q2 9 3.5 18t3.5 18l4 12q2 8 4 16.5t4 17.5q1 5 3.5 12t4.5 13v7l4 12t4 11l2 14
q2 8 5 14t5 13l2 13q5 19 17 22zM212 388q-1 -2 -0.5 -3.5t0.5 -3.5q-2 -7 -5.5 -12.5t-4.5 -12.5q-1 -2 -0.5 -4t0.5 -4q-2 -5 -4.5 -11t-3.5 -12q-1 -1 -0.5 -3t0.5 -4q-1 -3 -3.5 -9t-4 -12.5t-0.5 -12t7 -7.5t12.5 -1t14.5 -1q1 0 3 -2q4 0 7.5 0.5t6.5 -0.5
q3 0 11 -1.5t13 0.5q7 2 3.5 12t-4.5 19q0 2 0.5 4.5t-0.5 4.5q-2 7 -4 13t-4 14l-6 33l-2 16q0 2 -1 2.5t-1 1.5v7q-1 4 -3 7t-3 7q-2 9 -2.5 15t-5.5 11q-5 -11 -9.5 -24t-6.5 -27z" />
    <glyph glyph-name="B" unicode="B" horiz-adv-x="477" 
d="M81 742q19 2 39 0.5t37 -4.5q5 -1 11 -0.5t11 -1.5q1 0 2 -1t2 -1q3 -1 6 0t6 0t5.5 -2t4.5 -2l16 -2q2 0 3.5 -1.5t3.5 -2.5q8 -3 17 -5t16 -5q6 -1 14 -6l5 -4q8 -5 17 -9t17 -9q3 -2 6 -5.5t7 -5.5q6 -4 11 -9t10 -11q5 -4 10.5 -8.5t7.5 -8.5l2 -6l8 -10
q2 -5 2.5 -5.5t2.5 -3.5q5 -7 9 -17t6 -19q2 -7 3 -15t3 -16q0 -3 1.5 -4.5t2.5 -3.5q1 -5 -0.5 -9.5t0.5 -10.5q0 -2 1 -2.5t1 -2.5t-2 -5.5t-2 -6.5q-2 -7 -0.5 -15.5t0.5 -13.5q-2 -8 -3 -18t-3 -18q-1 -2 -2.5 -3.5t-1.5 -3.5q-2 -6 -3 -12t-3 -11q-2 -3 -4 -5t-2 -4
q-1 -2 -0.5 -3.5t0.5 -3.5q-2 -4 -6 -8.5t-6 -7.5q-6 -9 -13 -18.5t-15 -15.5q-4 -3 -9.5 -7.5t-5.5 -9.5q0 -2 2 -4t3 -4q3 -4 5 -9l4 -10q5 -8 7 -14.5t6 -16.5q4 -8 8 -16.5t6 -17.5v-6q2 -8 5 -16t5 -16q1 -5 0 -10t0 -10q0 -1 1 -2t1 -2q1 -2 0 -6.5t0 -8.5t1 -4.5
t-1 -4.5t0 -8.5t0 -7.5l-6 -23q0 -2 0.5 -4.5t-0.5 -4.5q-1 -4 -3 -7t-3 -9q-1 -2 -1.5 -5.5t-2.5 -5.5l-18 -26l-5 -5l-5 -5q-9 -6 -18.5 -12t-18.5 -10q-2 -1 -4 -2.5t-4 -1.5q-5 -2 -10.5 -3t-10.5 -3q-2 -1 -4 -2.5t-4 -1.5q-4 -2 -6.5 -1t-4.5 1q-2 -1 -4 -2.5t-4 -1.5
q-7 -2 -13 -1.5t-13 -0.5q-1 0 -1.5 -1t-1.5 -1q-8 -2 -17.5 -1t-18.5 -1q-2 0 -2.5 -1t-2.5 -1q-7 -2 -18.5 -1t-21.5 1h-80q-14 0 -29 -0.5t-19 7.5q-2 4 -3 11.5t0 12.5l3 5q1 4 -0.5 10.5t0.5 11.5q2 8 2.5 27.5t-1.5 30.5q0 2 -0.5 2.5t-0.5 1.5q-2 11 0 21t0 19
q-1 5 -2.5 7t-0.5 7q0 1 1 2t2 3q2 8 0.5 19t0.5 20q2 10 2 25.5v29.5q0 13 1 27t-1 23q-2 8 -3.5 24t0.5 28q1 7 0 15q-4 19 -0.5 39.5t0.5 39.5l-3 6q-1 5 0.5 11t-0.5 12q0 2 -2 4q-1 5 0 10.5t0 10.5q-2 11 -2 26.5v29.5q0 24 -1 42t-1 40q0 7 1 14t-1 12q0 2 -0.5 3
t-0.5 3q0 3 2 9t1 11q-1 8 -3 13t1 13q1 2 3.5 4t3.5 3q4 2 7 1.5t8 0.5q2 0 2.5 1t2.5 1q2 1 5 0.5t6 -0.5q2 2 4 2q10 2 21.5 1t19.5 1q1 0 1 0.5t1 0.5v1zM123 612q-2 -2 -3 -9.5t-2 -10.5q-2 -6 0.5 -13t4.5 -13q0 -3 -1.5 -5t-1.5 -4q0 -1 1 -2t2 -3q1 -6 -0.5 -14
t-1.5 -14q0 -2 1.5 -8.5t1.5 -8.5q2 -8 0 -19.5t0 -21.5q1 -3 2.5 -6t1.5 -6q2 -8 0 -18.5t0 -18.5q2 -13 7 -18q5 -2 14.5 -0.5t11.5 2.5q5 1 8.5 0t7.5 0q2 0 2.5 1t2.5 1q10 2 18.5 4.5t16.5 5.5q11 4 24.5 12.5t19.5 17.5q4 5 10 15.5t7 16.5q2 5 1 10t1 10q1 2 2 6t0 9
l-6 26q-3 9 -9 18t-12 17q-8 10 -20 17t-23 12q-7 3 -15 7.5t-14 6.5l-18 2q-1 0 -1.5 1t-2.5 1q-5 2 -14 2t-14 -2l-5 -2.5t-5 -3.5zM150 277q-2 0 -4 -2q-3 0 -6 0.5t-5 -0.5q-3 -2 -4.5 -10t-2.5 -12q-1 -5 -0.5 -12t0.5 -13q0 -19 -0.5 -43t2.5 -38q2 -5 0.5 -13
t-2.5 -11q-1 -4 1 -10t4 -7q3 -2 10.5 -1t12.5 1q17 0 28.5 0.5t23.5 5.5q10 4 19.5 9.5t14.5 13.5q8 11 9.5 27.5t-1.5 31.5q-2 9 -5.5 16l-7.5 15q-3 6 -6 11.5t-6 9.5q-3 5 -5 8.5t-4 7.5q-2 2 -4.5 4t-4.5 4t-4 5t-4 4q-4 2 -11.5 1.5t-11.5 -1.5q-3 -1 -11.5 -0.5
t-14.5 -1.5z" />
    <glyph glyph-name="C" unicode="C" horiz-adv-x="461" 
d="M209 761q6 2 17 1.5t16 -2.5q4 -1 8 0t8 0q1 0 1.5 -1t1.5 -1q7 -1 12 -0.5t11 -1.5q2 -1 3.5 -2t3.5 -2q9 -4 16 -5.5t15 -6.5q35 -22 55 -54q3 -5 5 -11t5 -11q2 -2 4.5 -6.5t3.5 -7.5q0 -2 -0.5 -3.5t0.5 -3.5q1 -5 4 -9t4 -9q1 -2 0 -5.5t0 -5.5q0 -3 1.5 -6t2.5 -6
q0 -3 0.5 -5t1.5 -4q2 -7 1 -15t1 -16q0 -2 2 -4q1 -5 0 -8.5t0 -7.5q0 -2 1 -2.5t1 -2.5q0 -3 -1 -3t-1 -2q-1 -2 -0.5 -4.5t0.5 -4.5q-1 -2 -4.5 -5.5t-5.5 -4.5q-3 -1 -11 0t-13 0l-4 -2q-6 -2 -16.5 -1t-19.5 1q-13 0 -27.5 -0.5t-16.5 8.5q-1 3 -0.5 5.5t0.5 4.5
q-1 2 -1.5 2t-0.5 2q-1 3 0 7t0 7q-5 18 -10 37.5t-14 33.5q-5 7 -11.5 9t-13.5 7q-6 6 -8 6q-13 3 -27 0q-5 -1 -7.5 -3t-7.5 -3t-11 -5.5t-11 -7.5l-9 -8q-8 -12 -14.5 -25t-11.5 -29q-2 -7 -5 -16t-5 -17l-3 -28q-2 -9 -0.5 -20t0.5 -19l-3 -5q-1 -5 0 -9t0 -9
q-1 -6 -1.5 -16.5t-0.5 -21.5q0 -9 -0.5 -18.5t0.5 -15.5q1 -5 0 -9q-1 -5 0 -9t2 -10q1 -2 0.5 -5t-0.5 -5q1 -4 2.5 -7.5t0.5 -6.5q-1 -2 -2 -2.5t-1 -1.5q-1 -3 -1 -8.5t1 -8.5q0 -2 3 -5q1 -5 -0.5 -10.5t0.5 -11.5q0 -1 0.5 -1.5t0.5 -1.5q2 -5 0.5 -9.5t-0.5 -8.5
l2 -4q2 -5 0.5 -9.5t-0.5 -8.5q3 -14 6 -28.5t8 -27.5q4 -10 9.5 -20.5t10.5 -18.5q3 -5 10 -10.5t12 -9.5q6 -4 14.5 -7t19.5 -1q5 1 14.5 6t12.5 10q8 10 15.5 22.5t9.5 24.5l2 20q1 5 2.5 9.5l3.5 10.5q1 6 0.5 11.5t3.5 10.5q3 2 11.5 4t16.5 0l4 -2q6 -2 14 0t16 0
q7 -2 12.5 -2t11.5 -2q3 -1 7.5 0t7.5 0q13 -2 15 -13q2 -8 0.5 -18.5t-2.5 -14.5q-2 -7 -2 -13t-2 -11q-4 -12 -6.5 -26t-5.5 -26q-1 -2 -2 -3.5t-2 -3.5q-2 -9 -4.5 -16t-7.5 -15q-2 -3 -4 -5.5t-4 -4.5q-2 -3 -3 -6.5t-3 -6.5q-3 -5 -6.5 -8.5l-8.5 -8.5l-12 -10
q-2 -1 -3.5 -3t-3.5 -4q-3 -2 -7.5 -4t-8.5 -4l-8 -4t-10 -4q-5 -2 -10 -4.5t-9 -3.5q-3 -1 -6.5 0t-7.5 0q-2 -1 -6.5 -1t-9.5 -1q-8 -2 -19.5 -3t-22.5 1q-2 1 -2 1.5t-2 0.5q-8 2 -14 1t-14 1q-5 1 -10.5 3.5t-10.5 4.5q-13 4 -26.5 11.5t-23.5 15.5q-5 3 -10.5 8.5
t-9.5 10.5q-5 7 -8 13.5t-8 13.5q-1 1 -2 1t-2 2q-3 5 -5.5 11t-4.5 13q-2 6 -4 9t-4 10q-1 5 -3.5 10t-4.5 11q-2 12 -4 18l-6 36q0 3 -1.5 5.5t-2.5 4.5q0 4 1 8t-1 8q0 3 -1.5 8.5t-2.5 8.5q-1 5 0 10.5t0 10.5l-2 4q-1 5 0.5 10.5t-0.5 11.5q-1 5 -1.5 14t-0.5 20
q0 8 -0.5 16t0.5 15q1 3 2.5 10.5t-0.5 13.5q0 3 -2 6t-2 6q1 2 1.5 2t0.5 2q2 4 0 10.5t-3 10.5q-2 7 0 12.5t3 11.5q3 16 1 33.5t1 34.5q1 3 0 6.5t0 7.5q2 2 2 3q1 4 0 8t0 7l3 4q2 7 1 12.5t0 11.5q1 2 2.5 6.5t1.5 6.5q2 8 2 15t2 14q2 9 6 18t6 18q8 26 20 45t29 36
q15 14 31.5 24.5t39.5 18.5q6 2 11.5 3.5t11.5 2.5q3 1 6.5 0t7.5 0q1 0 1.5 1t2.5 1q5 1 11 0.5t10 0.5z" />
    <glyph glyph-name="D" unicode="D" horiz-adv-x="430" 
d="M46 749q4 1 7.5 0t7.5 -2q14 -2 27.5 -0.5t27.5 -1.5q1 0 5 -2q2 0 5 0.5t6 -0.5q3 0 5.5 -1.5t5.5 -2.5l16 -2q3 -1 6.5 -2.5t7.5 -3.5l22 -10t21 -12l10 -8q5 -4 12.5 -11.5t12.5 -15.5q5 -6 10.5 -11t9.5 -11q3 -4 4.5 -9t4.5 -10t7.5 -11t6.5 -11q0 -2 -0.5 -3
t0.5 -3q0 1 4 -1l2 -8q2 -5 4 -9t4 -9l3 -10q5 -11 10.5 -22t8.5 -25q2 -11 7 -21.5t8 -21.5q3 -8 6.5 -16.5t5.5 -16.5q2 -7 4.5 -13.5t3.5 -11.5q3 -14 0.5 -29t-0.5 -31q1 -3 2.5 -6t1.5 -6t-1.5 -6l-2.5 -5q0 -2 0.5 -4t-0.5 -4q-1 -7 -3.5 -12.5t-4.5 -12.5
q0 -2 0.5 -4t-0.5 -4q-1 -6 -3.5 -13t-3.5 -13q-3 -14 -8 -27t-9 -28q-2 -8 -6.5 -15.5t-6.5 -15.5q-2 -3 -2.5 -6.5t-2.5 -6.5l-3 -4q-2 -4 -2.5 -8t-1.5 -6q-1 -1 -2.5 -1t-1.5 -1q-1 -2 -0.5 -3.5t-0.5 -2.5q0 -2 -1 -1.5t-2 -1.5q-3 -5 -5 -10.5t-5 -10.5q-2 -4 -5.5 -7
t-6.5 -7q-2 -2 -2.5 -4.5t-2.5 -4.5q-4 -5 -9 -9.5t-9 -10.5q-5 -6 -12.5 -14.5t-15.5 -13.5q-2 -1 -3.5 -3t-3.5 -4q-8 -6 -16.5 -10.5t-17.5 -9.5q-7 -5 -13 -8.5t-14 -5.5q-4 -1 -6.5 -3t-4.5 -3q-3 -2 -7 -2t-8 -2q-3 -1 -5 -2l-4 -2l-10.5 -3.5t-9.5 -2.5
q-3 -1 -6.5 -0.5t-5.5 0.5l-14 -4q-7 -2 -12 -1t-10 -1q-4 -1 -7.5 -2t-8.5 0q-11 2 -13 13.5t-4 24.5q-1 5 -2.5 10t-3.5 11q0 2 0.5 4t-0.5 4q0 1 -2 5l-2 12q-2 6 -1 12.5t-1 12.5q0 4 -2 14q0 3 -1.5 6t-1.5 6q-1 4 0 8t0 8l-3 4q-1 4 0 7.5t1 6.5q-1 3 -3 5
q-2 10 0 22.5t0 25.5t-1 25t-1 23q0 2 -0.5 5t-0.5 6q-1 4 -1.5 5t1.5 4q1 6 0.5 14t-0.5 16v30q0 16 -1 34.5t2 30.5q3 11 0.5 24t-0.5 25q2 9 2 23.5v26.5t-1 24t1 21q1 2 1.5 2t0.5 2q1 2 0 4.5t0 5.5q0 1 3 4q1 5 -0.5 9t0.5 9q1 8 1.5 16.5t-1.5 16.5q-2 10 0 21
t1.5 20t1.5 17q4 14 0.5 34t-0.5 34q0 2 1 2.5t2 2.5q1 1 2 3q5 3 16 3.5t16 2.5zM127 558q1 -4 0 -8q-1 -5 0.5 -10t-0.5 -10l-2 -4q-3 -14 0 -34.5t0 -34.5q0 -3 -1.5 -5.5t-2.5 -4.5q-2 -10 0 -19q1 -2 2 -3t1 -3t-1 -2.5t-2 -2.5q-2 -10 -1 -22.5t-1 -23.5
q-1 -4 -1 -4.5t1 -4.5q1 -2 0 -3.5t-2 -4.5q-2 -9 -1 -21.5t1.5 -26t1 -26t-1.5 -21.5q-1 -4 0.5 -7t1.5 -7q1 -2 -0.5 -4t-1.5 -4l1 -1q0 -1 0.5 -1.5t0.5 -1.5q1 -4 0 -10t0 -11l2 -4q1 -6 0 -12.5t0 -11.5q1 -3 2.5 -5.5t1.5 -5.5q1 -1 0 -2t-1 -2q0 -4 2.5 -10t3.5 -6
q2 -2 5 -0.5l5 2.5l16 12q4 2 9 7t7 9q11 15 22 33t18 38q2 9 6.5 18t6.5 17l1.5 3t0.5 3q3 14 7.5 28.5t6.5 28.5t-0.5 26.5t-5.5 23.5q-2 11 -4.5 18t-5.5 18q-2 6 -5 13t-5 14l-3 15q-2 4 -4.5 8t-4.5 9q-1 5 -3 8.5t-4 8.5q-3 10 -8.5 20t-11.5 19l-16 26q-1 1 -5 5.5
t-8.5 9t-9 7.5t-6.5 2t-3 -7t-1.5 -14t0 -15t0.5 -9z" />
    <glyph glyph-name="E" unicode="E" horiz-adv-x="404" 
d="M129 735q5 0 15 -2q13 -2 29 -1t33 1q20 0 39 1t33 -1q11 -2 23 -0.5t17 -5.5q2 -2 3.5 -9t1.5 -11l-3 -7q-1 -5 0 -11.5t0 -11.5v-11q2 -10 0 -20q-1 -8 -2 -18t-6 -12q-2 -2 -6 -1t-7 0q-9 -2 -22 -2h-27h-25t-22 2q-5 2 -11.5 1t-11.5 -3q-10 -2 -18.5 0t-15.5 0
q-3 0 -8 -3t-6 -5q-2 -6 0 -14t0 -15q0 -2 -1 -3.5t-1 -2.5q0 -2 1 -3t1 -3q0 -1 -1 -2t-1 -3q-1 -5 0 -9.5t0 -8.5q-2 -11 -2 -26v-32q0 -14 -1 -27.5t1 -24.5l3.5 -17.5t10.5 -9.5q6 -1 13.5 -0.5t15.5 0.5q9 0 18 0.5t16 1.5t13 0t11 0l3 1.5t3 0.5q10 2 21.5 1t23.5 -1
q11 0 23.5 1t21.5 -1q1 0 2 -1t3 -1q5 -2 10.5 -2t7.5 -5q2 -6 0.5 -17t-0.5 -19q1 -3 2 -5.5t0 -6.5q0 -4 -1.5 -6.5t-1.5 -4.5q-2 -8 -2 -18v-16v-7t-3 -6q-2 -1 -9 -2t-11 -1q-10 3 -24 0q-5 -1 -9 0t-9 0q-2 0 -3 -1t-3 -1q-5 -1 -8 0t-8 2q-6 2 -11.5 0.5t-10.5 -2.5
q-14 -2 -28.5 -1t-29.5 -1q-4 -1 -10.5 -2t-12.5 0q-2 0 -3 1t-3 1q-1 0 -5.5 -0.5t-6.5 -1.5q-5 -2 -4.5 -6t-0.5 -9q0 -4 -1.5 -8t-2.5 -9q-1 -8 -0.5 -17t0.5 -18t-0.5 -18.5t0.5 -17.5q2 -11 1 -20.5t1 -20.5q0 -2 1 -3t1 -3q1 -4 2 -10.5t3 -8.5q3 -2 13.5 -1t14.5 1
h19.5t15.5 2q4 1 8.5 0t7.5 0q8 1 18 1.5t21 2.5q5 1 10 0t10 0q2 0 3 1t3 1q5 0 10.5 -4.5t7.5 -9.5q2 -8 0 -16t0 -16q2 -11 3 -20.5t1 -23.5v-17t-5 -11q-2 -1 -4.5 0t-5.5 0q-2 0 -3.5 -1t-3.5 -1q-2 -1 -5.5 -0.5t-5.5 0.5q-4 -2 -6 -2q-4 -1 -8 0t-8 0q-8 -2 -16 -2
t-17 -2q-5 -1 -9 0t-9 0q-2 0 -3 -1t-3 -1q-5 -1 -11 0t-11 0q-2 0 -3 -1t-3 -1q-5 0 -12 1t-12 -1q-2 -1 -2.5 -2t-2.5 -2q-5 -2 -16 -1t-19 1h-22t-19 -2q-5 -1 -10.5 0t-10.5 0q-6 -1 -16 -2t-15 3q-2 3 -4 10t-4 12q-2 14 -0.5 32t-1.5 32q-1 8 -1 15t4 13q2 3 5 5.5
t4 6.5q2 6 1 19.5t-3 18.5q0 4 1 6.5t1 5.5q2 13 0.5 26.5t-3.5 27.5q-2 6 -1 13.5t1 15.5t-1 15.5t1 14.5q4 21 2.5 53t-1.5 57v264q0 14 1 28t-1 25q-1 6 -0.5 13.5t7.5 11.5q9 4 28 2t33 0q5 1 7.5 1t7.5 -1h18z" />
    <glyph glyph-name="F" unicode="F" horiz-adv-x="401" 
d="M44 750q6 1 16 0.5t20 -0.5t19 1t17 -1q4 -1 11 -1.5t9 -2.5q4 -3 6 -8.5t7 -7.5q2 -1 8 -1t10 1l3 1.5t3 0.5q5 2 12 1t14 -1t14 1t12 -1q2 0 6 -2q14 -2 28.5 -1t26.5 -1q7 -1 8.5 -7t1.5 -14t-1 -17.5t1 -17.5q1 -4 2 -13t0 -14q-1 -2 -2 -4.5t-1 -4.5q0 -3 -0.5 -11
t-5.5 -10t-20 -1t-23 1q-11 0 -22 1t-21 -1q-2 -1 -3 -2t-3 -1q-13 -2 -26.5 -0.5t-23.5 -1.5q-7 -1 -10 -16q0 -2 -1 -3t-1 -3q0 -1 1 -2.5t1 -3.5q2 -9 0 -19q0 -1 -0.5 -2t-0.5 -3q-1 -2 0.5 -3.5t0.5 -3.5q0 -4 -1.5 -8t-1.5 -7q0 -4 1.5 -7t1.5 -6q1 -4 -1 -9.5
t-3 -10.5q-1 -7 -0.5 -11.5t-1.5 -9.5v-9t0.5 -12.5t1.5 -11.5t3 -6q1 -1 6 -1t11 0.5t11.5 1.5t8.5 1q5 1 11.5 0t12.5 -2q11 -2 23.5 0t21.5 0q2 -2 4 -2q19 -3 35.5 0t33.5 0q2 0 2.5 -1t2.5 -1q8 -2 16.5 -1t10.5 -6q2 -5 2 -12t-2 -14q0 -2 0.5 -4.5t-0.5 -4.5
q-2 -8 -4 -19.5t0 -22.5q1 -5 1.5 -9t-1.5 -12q-1 -13 -12 -15q-6 -1 -14 -0.5t-16 0.5q-26 0 -48.5 1t-49.5 1h-32q-8 0 -16.5 1t-15.5 -1q-13 -3 -16 -16q-2 -8 0 -17.5t0 -17.5q-1 -8 -3.5 -14.5t-0.5 -16.5q1 -2 2 -4.5t0 -5.5q0 -2 -1.5 -4t-2.5 -4q0 -2 1.5 -5.5
t0.5 -8.5q0 -2 -1.5 -4t-1.5 -4q-3 -12 -0.5 -26.5t0.5 -26.5q-5 -26 -3.5 -55.5t1.5 -58.5v-19t-3 -14q-2 -2 -6 -1t-8 0q-2 0 -3 -1t-3 -1q-6 -1 -13.5 0t-12.5 0q-2 0 -3 -1t-3 -1q-6 -2 -13.5 -0.5t-15.5 0.5q-13 -2 -20.5 -1.5t-9.5 14.5q-1 5 -1 4.5t1 4.5
q1 8 -0.5 18t0.5 15q2 11 1.5 27t-0.5 30t1 27.5t-1 24.5q0 4 -1 6.5t0 6.5q2 13 1 31.5t2 36.5q2 8 0.5 17t-0.5 17q2 4 2 5q2 9 0.5 17.5t-0.5 16.5l3 6q1 6 -0.5 12t0.5 13q0 4 0.5 7.5t-0.5 8.5q-2 10 1.5 18t1.5 16q0 3 -2 7q0 2 1 3.5t1 3.5q1 5 0 9.5t0 9.5q2 8 2 16
t2 16q3 16 0.5 31.5t-0.5 29.5q1 4 2.5 7t1.5 6q3 14 1.5 34.5t0.5 36.5q1 3 2 5.5t0 5.5q0 2 -0.5 2t-1.5 2q-1 6 0 12.5t2 10.5q2 6 0.5 12t-0.5 11q2 6 3 17.5t-1 19.5q-2 11 -2 27.5t12 19.5q2 1 4.5 1t4.5 1z" />
    <glyph glyph-name="G" unicode="G" horiz-adv-x="439" 
d="M204 744q11 2 26 0t26 -4q4 0 6.5 0.5t5.5 -0.5q4 -1 10.5 -2.5t11.5 -3.5l5 -4q11 -3 20 -9.5t17 -12.5q6 -5 11.5 -12.5t10.5 -14.5q2 -2 6 -4q4 -6 7.5 -13.5t6.5 -15.5q2 -5 4.5 -8.5t3.5 -8.5q0 -2 -0.5 -3t0.5 -3t2 -2t2 -1q1 -2 0 -5t0 -7q1 -3 3 -6t3 -5
q0 -3 -0.5 -5.5t0.5 -5.5l4 -12q0 -4 -0.5 -7t0.5 -7q0 -2 1 -2.5t1 -2.5q1 -5 0 -11.5t0 -11.5q1 -3 2.5 -6t1.5 -5q0 -1 -1.5 -3.5t-1.5 -4.5t0.5 -2.5t0.5 -2.5q-1 -8 -7 -10.5t-15 -3t-18.5 -0.5t-17.5 -1q-1 0 -3 -2q-4 -1 -8 0.5t-9 -0.5q-8 -2 -21 -2t-15 8
q-1 3 0 6.5t0 7.5l-4 14q-1 5 -0.5 10t-1.5 10l-8 28q-5 12 -12 22.5t-16 16.5q-8 6 -18 8q-5 2 -14 0q-2 0 -2.5 -1t-2.5 -1h-6l-4 -3q-6 -4 -11.5 -6.5t-10.5 -6.5q-9 -6 -15.5 -15t-13.5 -18q-4 -7 -7 -17t-5 -19q-1 -5 -2.5 -8.5t-3.5 -8.5q0 -2 0.5 -3t-0.5 -3
q0 -3 -1.5 -5.5t-1.5 -4.5q-1 -2 -0.5 -4t0.5 -4q-1 -3 -2.5 -6t-1.5 -6q0 -5 0.5 -9.5t-1.5 -10.5l-2 -4q-1 -5 0.5 -11t-0.5 -13q-1 -4 -2 -14t0 -17q2 -5 3 -8t-1 -8q0 -3 -1.5 -10t-0.5 -11q2 -5 2 -12.5t-2 -16.5q-1 -7 -2 -23t1 -26l3 -28q2 -5 0.5 -10t-0.5 -10
q2 -2 2 -3q2 -9 1 -14.5t1 -13.5q1 -3 2.5 -5t1.5 -5q2 -6 2 -12t2 -12q5 -17 13.5 -35t22.5 -28q6 -5 14.5 -8.5t14.5 -5.5q3 -1 7.5 -0.5t6.5 0.5q4 1 10 4.5t11 5.5l5 5l5 5t2.5 5.5t2.5 6.5q5 8 7 13t4 16q2 6 4 14.5t0 16.5q-1 3 -3.5 8t-5.5 6t-7 0t-7 0q-2 0 -2.5 1
t-1.5 1q-11 2 -25.5 0.5t-18.5 6.5q-6 11 -2 22q2 7 3 23.5t-1 26.5q-1 4 -2.5 8t0.5 9q1 5 6 9t11 5q2 1 4.5 0.5t4.5 -0.5q3 1 6.5 2t7.5 0q1 0 1.5 -1t2.5 -1q6 -2 13 0t15 0q1 0 1.5 -1t2.5 -1q6 -1 12.5 0.5t12.5 -0.5q2 0 2.5 -1t1.5 -1q6 -1 12 0.5t11 -0.5
q2 0 2.5 -1t2.5 -1q7 -2 16 -1.5t16.5 1t13.5 -1.5t8 -8q1 -2 0.5 -4.5t-0.5 -5.5q2 -7 2 -17.5v-24.5q0 -9 1 -20t-1 -18q0 -1 -2 -3q-1 -7 0 -14t0 -12q0 -1 -1 -2t-1 -2q-2 -6 -0.5 -12t0.5 -12q-1 -5 -3 -9.5t-3 -8.5q0 -2 0.5 -5t-0.5 -5q-1 -5 -3 -9t-3 -9
q-2 -5 -2 -10.5t-2 -10.5q-1 -3 -4.5 -7.5t-5.5 -10.5q-2 -4 -2 -7t-2 -6l-8 -13q-1 -2 -2.5 -2.5t-2.5 -1.5q-3 -5 -6 -8.5t-7 -9.5q-3 -5 -7.5 -8l-7.5 -5q-5 -3 -9 -7t-10 -8l-8 -2q-5 -2 -8 -4.5t-6 -3.5q-5 -1 -11 -0.5t-12 -1.5q-1 0 -2 -1t-2 -1q-7 -2 -15 -1t-15 1
q-8 0 -16 -1t-13 1q-2 0 -2.5 1t-2.5 1q-6 2 -11 1.5t-11 0.5l-4 2t-5 2q-14 5 -26 10t-22 12q-2 2 -3 4t-3 3q-5 3 -13 10t-11 14q-1 2 -2.5 2.5t-3.5 2.5q-3 5 -5.5 10t-5.5 10q-5 8 -9 17t-6 17t-6 15.5t-6 15.5v6l-8 27q-1 5 -0.5 10.5t-0.5 11.5l-5 16q-2 8 -1.5 19
t-1.5 19q-3 10 -1.5 27t1.5 28v112q0 13 -1 28.5t1 26.5q0 3 1.5 6t1.5 6q1 4 0 7.5t0 6.5q2 2 2 4q1 3 0.5 6.5t-0.5 5.5l3 4q0 3 -0.5 6t0.5 6q2 11 5.5 22.5t5.5 22.5q2 4 1.5 7.5t0.5 7.5l10 24l2 9q3 6 4 10q2 5 5.5 10t6.5 10l2 8l4 2l2 7q2 3 4.5 6.5t4.5 5.5
q2 3 4.5 5t4.5 4q5 12 19 22t25 17q12 8 28 12q5 2 9.5 4.5t9.5 3.5q6 2 9 2q7 2 14.5 1.5t15.5 2.5z" />
    <glyph glyph-name="H" unicode="H" horiz-adv-x="436" 
d="M46 735q3 1 11 1t13 -1t8.5 -2t7.5 0q11 3 19 0q11 -2 21 0t18 -2q6 -3 8.5 -12.5t0.5 -19.5l-4 -8q-2 -13 -1 -25t-1 -25q0 -3 -1 -4.5t-1 -3.5q0 -4 1.5 -6t0.5 -6q0 -2 -1 -3t-1 -3q-2 -8 -1 -17.5t-1 -19.5q-2 -11 -2 -22t-2 -22q-2 -9 -1 -17.5t-1 -16.5
q0 -2 -1 -3.5t-1 -3.5q0 -4 1.5 -6.5t0.5 -6.5q0 -1 -2 -5q0 -4 0.5 -7.5t-0.5 -7.5q-1 -5 -2 -9t0 -9q0 -1 1 -2t1 -3l2 -12q4 -8 10.5 -7.5t17.5 -1.5q2 0 3 -1t3 -1q4 -1 8 0t8 0q6 -1 9.5 -2t8.5 0q6 2 7 2q4 0 9 -1.5t11 -0.5q9 2 11.5 11.5t2.5 22t-1.5 26.5t0.5 24
q1 2 1.5 2.5t0.5 2.5q2 11 0 26.5t0 26.5q1 5 1.5 14.5t0.5 19.5t-0.5 19t-1.5 15q-1 5 1 11t3 11q2 11 0 21.5t0 18.5q0 2 1 3t1 3q2 8 1 12.5t6 8.5q6 3 16 2.5t22 -0.5q9 0 17.5 1t13.5 -1q2 0 4 -2q5 -1 10.5 0.5t10.5 -0.5q9 -2 10 -14t-1 -24q-1 -7 -1 -16t1 -15
q1 -4 1 -5t-1 -6q-1 -6 0.5 -13.5t-0.5 -14.5q0 -1 -2 -5q-2 -8 0 -16.5t0 -16.5q0 -2 -1 -2.5t-1 -2.5q-2 -9 -1 -20.5t1 -22.5v-253q0 -11 -1 -21.5t1 -20.5q0 -2 1 -2.5t1 -2.5q2 -9 1 -18t1 -20q3 -17 1.5 -34.5t0.5 -34.5q1 -7 0 -14q-1 -12 2 -30q1 -3 0 -6t0 -6
q2 -8 3 -25.5t-1 -25.5q-1 -2 -4.5 -4.5t-5.5 -3.5t-6.5 0t-8.5 0q-2 0 -3 -1t-3 -1q-3 -1 -7.5 0t-8.5 0q-4 -2 -5 -2q-4 -1 -9 0t-10 0q-14 -2 -28.5 -2.5t-16.5 10.5q-2 8 -1 16t-1 17q0 2 -1 3t-1 2q-2 8 0 16.5t0 16.5q-2 12 -2 24t-2 24t-1 25.5t1 25.5v30t-2 26
q0 4 0.5 7t-0.5 6q0 4 -1.5 10t-0.5 12q0 2 1 3t1 3q2 7 -1 16.5t-6 11.5t-7.5 1.5t-7.5 -1.5q-7 -1 -17.5 0t-15.5 2q-6 2 -13 0.5t-14 -0.5q-4 1 -11.5 2.5t-10.5 -0.5q-4 -2 -6.5 -8t-3.5 -11q-1 -4 0 -7.5t0 -8.5q-2 -10 -2 -20.5t-2 -21.5q-1 -8 -0.5 -16t-0.5 -16
l-3 -6q-2 -7 0 -16t0 -17q-1 -5 -2.5 -8.5t-1.5 -6.5q0 -1 1 -2t1 -3q1 -3 0 -5.5t-2 -6.5q-1 -8 0 -19t2 -16q1 -4 0 -6.5t-2 -6.5q-1 -7 0 -18t2 -16q2 -8 -1 -21.5t-5 -15.5q-1 0 -7 -1t-7 -1q-9 -2 -20 -1t-23 1q-14 0 -28 -1t-23 3q-5 2 -6.5 9.5l-2.5 12.5q-1 4 0 7
t1 6q3 13 0.5 27t-0.5 29q2 8 4 16.5t0 18.5q0 3 -0.5 5t-1.5 7q0 2 -1 3t-1 2q0 2 1.5 6t2.5 8q2 7 -0.5 12.5t-1.5 10.5q2 4 2 5q2 8 0.5 16t-0.5 16q2 4 2 6q1 2 0.5 5.5t-0.5 6.5l3 6q2 12 0.5 26t0.5 26q1 5 2 8.5t-2 8.5q-2 3 -4 5t-4 5q-2 6 -2 16t2 17q2 11 1 24.5
t1 26.5q2 6 3 12t3 11q2 3 4.5 5.5t3.5 5.5q2 7 0.5 14.5t-0.5 15.5q0 2 1 3.5t1 3.5q1 3 0.5 7t-0.5 7q2 11 2 22t2 23q2 8 0.5 17t-0.5 17l4 19q2 7 0.5 13t-0.5 12q0 2 1 2.5t1 1.5q1 5 0 9t0 8q0 2 1 3.5t1 3.5q2 13 2 26t2 26q1 4 0 7.5t0 7.5q0 2 1 3t1 2q1 3 0 6t0 6
q1 5 5 8t6 4z" />
    <glyph glyph-name="I" unicode="I" horiz-adv-x="425" 
d="M22 742q2 0 3 -0.5l3 -1.5q5 -1 9.5 0t9.5 0q4 -1 11.5 -2t13.5 0q12 3 28 0q8 -1 17 0t20 -2q8 -1 14.5 0.5t14.5 -0.5q2 0 2.5 -1t2.5 -1q5 -1 10.5 0t10.5 0q10 -2 26 -2t26 -2q11 -2 25 -1t28 -1q1 0 5 -2q5 -1 11 0.5t11 -0.5q3 0 5 -2q9 -2 17.5 -2t10.5 -8
q2 -3 0.5 -8t-2.5 -9q-2 -9 -1 -21.5t-1 -23.5q0 -2 -0.5 -3t-0.5 -2q-1 -2 0 -3.5t1 -3.5q0 -4 -1.5 -9t-2.5 -9q0 -2 0.5 -4t-0.5 -4q-3 -7 -18.5 -6.5t-23.5 2.5q-12 2 -26.5 0t-26.5 0q-5 1 -10.5 2.5t-9.5 -0.5q-1 0 -4 -4.5t-4 -8.5q0 -2 0.5 -3.5t-0.5 -3.5
q0 -3 -2 -5q0 -2 1.5 -3.5t0.5 -3.5q0 -1 -2 -5q0 -5 -0.5 -9t-0.5 -7q-2 -11 -1 -22t-1 -20q-1 -4 -2.5 -10.5t-0.5 -11.5t0 -10t0 -10t0 -9q-2 -9 -2 -23v-28v-27.5t2 -24.5t0 -21.5t0 -20.5l3 -9t2 -9q0 -5 -2.5 -8.5t-2.5 -6.5q0 -2 1 -3.5t2 -3.5q0 -2 -0.5 -5.5
t0.5 -6.5q0 -1 2 -5q2 -9 0 -21.5t0 -20.5v-10q-2 -11 1.5 -22t1.5 -21q0 -3 -1 -4.5t-1 -3.5q1 -2 1.5 -3.5t0.5 -3.5q1 -2 0 -3.5t-2 -4.5q0 -1 1 -4.5t1 -7.5q1 -3 2 -9t3 -7t8 -0.5t10 0.5q5 0 9.5 0.5t8.5 -0.5q2 0 2.5 -1t2.5 -1q9 -2 18.5 -0.5t16.5 -1.5q3 -2 6 -9
t3 -12q0 -2 -1 -3.5t-2 -3.5q0 -3 0.5 -5.5t-0.5 -4.5q0 -2 -0.5 -3t-0.5 -2q-4 -18 -0.5 -35t0.5 -31q-2 -6 -11.5 -7t-21.5 -0.5t-23.5 1t-16.5 -2.5q-6 -3 -7.5 -11.5t-9.5 -10.5q-11 -3 -24.5 -0.5t-26.5 0.5q-14 -2 -28.5 -2.5t-25.5 2.5q-7 2 -11 12t-13 12
q-12 2 -25.5 0t-26.5 0q-2 0 -3 1t-3 1q-10 2 -18 0.5t-11 6.5q-4 8 -3.5 21t0.5 27q0 10 -0.5 20t0.5 18q2 8 4.5 15.5t10.5 9.5q13 3 26 1.5t30 -1.5q11 0 21 -0.5t12 9.5q1 5 -0.5 11.5t-1.5 10.5q-2 6 -0.5 13t0.5 13q-2 4 -2 5q-2 8 -0.5 17.5t0.5 17.5q-2 4 -2 5
q0 3 1.5 5t0.5 6q-1 3 -2.5 5.5t-1.5 6.5q0 9 0.5 19.5t-1.5 19.5q-2 11 0 27.5t0 28.5q0 4 -0.5 6.5t0.5 7.5q2 5 2 8t-2 9q0 4 1 9t-1 10q-1 6 -1 16v20v20.5t1 15.5q2 13 1 26.5t1 23.5q1 5 0 9.5t0 8.5l3 6q2 10 0 23t0 24q1 5 1.5 17.5t-2.5 16.5q-4 6 -15.5 4.5
t-20.5 0.5q-6 1 -11 0t-11.5 0t-10.5 2q-11 2 -21 1t-12 9q-1 4 -1 11.5v15t1 14.5t1 10q2 7 0.5 13.5t-0.5 12.5q2 12 5.5 21.5t15.5 11.5z" />
    <glyph glyph-name="J" unicode="J" horiz-adv-x="445" 
d="M335 741q6 1 16.5 -1.5t12.5 -7.5t1 -9t1 -10q0 -1 1 -1.5t1 -2.5q2 -5 0.5 -10t-0.5 -10q2 -2 2 -4q2 -9 1 -18.5t1 -18.5l4 -12q1 -5 0 -9.5t0 -9.5q0 -2 1 -2.5t1 -2.5t-1 -4t-1 -4q0 -1 1 -2t1 -2q0 -3 -0.5 -6t0.5 -6q0 -1 1 -1.5t1 -2.5q2 -7 1.5 -14.5t0.5 -14.5
q0 -2 1 -3t1 -3t-1 -3.5t-1 -3.5t1 -2.5t1 -2.5q1 -4 0 -7.5t0 -6.5q1 -2 2 -4.5t2 -5.5q1 -5 0 -10.5t0 -10.5q0 -1 2 -5q0 -4 -0.5 -6t0.5 -6q1 -5 0 -10t0 -9q0 -2 1 -2.5t1 -2.5q1 -2 0.5 -5t-0.5 -5q0 -1 1 -1.5t1 -1.5q1 -5 0 -10t0 -10q0 -2 1.5 -5.5t0.5 -8.5
q0 -1 -1 -1.5t-1 -2.5q0 -3 1.5 -6l2.5 -5q2 -11 0 -22.5t0 -23.5q0 -3 1.5 -5.5t2.5 -4.5q0 -3 -0.5 -5l-1.5 -6q-2 -10 -1 -21.5t1 -22.5t1 -22.5t-1 -20.5q-2 -4 -2 -5q0 -3 1.5 -5t0.5 -6l-4 -17q-1 -3 0 -6t0 -6q0 -2 -1 -2.5t-1 -2.5q-1 -4 0 -8t0 -9t-3 -9.5t-3 -9.5
q-1 -2 -0.5 -3.5t0.5 -3.5l-2 -12l-4 -7q-2 -7 -3 -11.5t-3 -11.5q-1 -2 -2 -3.5t-2 -3.5q-5 -15 -13.5 -30.5t-18.5 -29.5q-5 -8 -14.5 -15t-17.5 -12q-8 -6 -21 -12q-6 -3 -11.5 -6t-11.5 -5l-13 -4q-3 -1 -6 0t-6 0q-1 0 -1.5 -1t-1.5 -1q-8 -2 -14 -1t-14 -1q-2 0 -3 -1
t-2 -1q-4 -1 -5.5 0t-4.5 2q-11 2 -22.5 1t-21.5 1q-2 1 -6 1t-9 1q-7 2 -13.5 5t-13.5 5q-11 5 -22 11t-21 13q-10 8 -17.5 19.5t-14.5 23.5q-4 6 -7.5 10.5t-5.5 12.5q-2 6 -4.5 13t-4.5 13q-2 5 -4 11t-4 11q-1 6 -0.5 11t-0.5 11l-5 15q0 2 0.5 6t-0.5 7q0 1 -2 5
q-1 5 0.5 12.5t-0.5 12.5q-1 7 -2 19t1 23q0 2 0.5 2t0.5 2q2 9 0 18t0 19q2 11 5 17t11 8q6 1 13.5 0t10.5 -2q6 -2 13.5 0t14.5 0q9 -2 17 -2t15 -2q6 -1 12 -1.5t8 -5.5q1 -2 0.5 -4t-0.5 -4q2 -8 2 -12t-2 -13q-1 -3 -1 -3.5t1 -4.5q2 -5 -0.5 -9t-3.5 -8q0 -3 2 -5
t2 -5q1 -4 0 -8.5t0 -9.5q2 -2 2 -4q1 -4 -0.5 -6t-1.5 -5q0 -2 1 -2.5t1 -2.5q1 -2 0.5 -4.5t-0.5 -4.5q1 -5 3 -9.5t3 -9.5q1 -2 0.5 -3t-0.5 -3q2 -5 4.5 -10t5.5 -10q5 -8 8.5 -15.5t11.5 -12.5q9 -7 22 -12.5t31 -2.5q5 1 11 4t11 6q3 2 7.5 6t7.5 8q6 8 13 20t9 23
l2 12q1 5 3 9t3 8q0 2 -0.5 3t0.5 3q0 2 1 2.5t1 2.5q2 8 1 16.5t1 16.5q0 1 1 2t1 2q2 6 1 15t-1 17q0 9 0.5 17.5t-0.5 15.5q-1 4 -1 5t1 6q1 4 0 10t-2 9q-2 7 0 15t0 16q0 2 -1 2.5t-1 1.5q-1 3 0 5.5t0 4.5q0 2 -1 3t-1 2q-2 11 0 22.5t0 22.5q-2 9 -2 18t-2 17
q-2 10 -1 18.5t-1 17.5l-4 14q-1 7 0.5 14t-0.5 14q0 1 -1 2t-1 3q-1 5 0 9.5t0 9.5q0 1 -1 2t-1 2q-2 8 -1 17.5t-1 17.5q0 2 -1 2.5t-1 2.5q-1 2 0 5t0 6q0 2 -1 2.5t-1 1.5q-2 11 -1 22t-1 22q0 1 -1 2t-1 3q-1 5 0 12t0 14q-2 14 -0.5 21.5t13.5 9.5q4 1 9 0t10 0
q2 2 4 2q13 2 26.5 1t24.5 3z" />
    <glyph glyph-name="K" unicode="K" horiz-adv-x="442" 
d="M30 733q12 2 32.5 0.5t34.5 -4.5q8 -2 17 -0.5t11 -4.5q2 -4 1.5 -7.5t-0.5 -6.5q0 -4 1.5 -8t-0.5 -9l-2 -4q-1 -4 0 -8t0 -8q-2 -9 -1.5 -23.5t0.5 -26.5t1 -24.5t-1 -22.5q-3 -3 -3 -4q-2 -8 -1 -17.5t1 -17.5q0 -9 -1 -18.5t1 -17.5l3 -4q3 -14 0 -29t0 -27
q0 -1 1.5 -3t1.5 -4v-2v-1q5 -8 14.5 -5t12.5 8l6 15q6 15 11 26.5t14 25.5q3 5 5 10l4 10q3 8 7 15t8 13q2 2 1.5 3.5t1.5 3.5q0 1 1.5 1.5t1.5 1.5q4 6 6.5 13.5t6.5 12.5q4 6 8 14.5t9 15.5q4 6 6 13t6 13l8 9q3 5 4.5 10t3.5 9q6 10 11 20t11 19q4 6 11 9.5t16 -0.5
q5 -2 9 -5t9 -5q2 -1 5 -0.5t5 -0.5q7 -3 14 -7.5t15 -7.5q6 -2 10 -4.5t9 -5.5q10 -6 7 -24q-2 -5 -6 -8.5t-6 -10.5q-5 -15 -15 -30q-2 -3 -5 -6.5t-4 -7.5q-2 -5 -3.5 -9t-4.5 -9q-10 -15 -17.5 -29t-15.5 -31l-27 -51l-9 -21q-2 -5 -6 -10t-6 -12v-3q-3 -7 -6.5 -13
t-5.5 -13q-2 -3 -5 -9.5t-3 -10.5q0 -3 2.5 -6.5t3.5 -6.5q1 -2 0.5 -3t-0.5 -3q1 -4 3 -8t3 -9v-4q2 -8 5 -14t5 -14q0 -2 -0.5 -4t0.5 -4q0 -2 1.5 -2.5t2.5 -2.5q2 -5 3 -12.5t3 -14.5q1 -4 2.5 -7.5t3.5 -7.5q4 -11 7 -23t6 -25q7 -23 15 -43t13 -40q4 -15 -12 -21
q-8 -3 -16 -5t-16 -5t-15 -6.5t-13 -5.5t-15 -5.5t-19 -0.5q-5 2 -9 12l-6 15q-3 8 -5 16.5t-5 16.5t-6.5 16t-5.5 15q-1 2 -0.5 3.5t0.5 2.5q-4 17 -9 30t-9 32q-1 5 -2.5 10.5t-3.5 10.5q-1 3 -2 6.5t-2 8.5q-2 7 -6.5 17.5t-8.5 11.5q-1 1 -5.5 1h-5.5q-2 1 -6.5 0
t-5.5 -1q-2 -1 -3.5 -7.5t-2.5 -11.5q-2 -5 -0.5 -10t1.5 -8q2 -3 1 -7.5t-1 -8.5q3 -10 0 -24q0 -1 -0.5 -1.5t-0.5 -1.5q-4 -16 -0.5 -37.5t0.5 -36.5q-3 -3 -3 -4q-2 -6 -1.5 -16t1.5 -15q1 -2 2 -3t1 -2q0 -2 -1 -3t-2 -3t0 -5t0 -7q0 -1 -2 -3q-1 -3 0 -8t0 -8
q0 -1 -0.5 -1.5t-0.5 -1.5l-1 -1q0 -2 1 -3t1 -3l-2 -4q-2 -11 0 -27.5t-2 -27.5q-1 -2 -4.5 -5.5t-5.5 -3.5q-3 -1 -9.5 0t-11.5 0q-2 0 -2.5 -1t-1.5 -1q-5 -2 -13 -1t-15 1q-8 0 -16 -0.5t-12 0.5q-2 0 -2.5 1t-1.5 1q-3 1 -6 0t-6 0q-5 1 -8 8t-4 13q-1 3 0 7t1 6
q2 7 0.5 14t-0.5 12q1 2 1.5 2t0.5 2q2 9 0 20.5t0 22.5q2 2 2 4q4 19 0.5 38.5t-0.5 34.5q2 7 3 22.5t-1 25.5q-1 4 -1.5 6.5t-0.5 5.5q1 3 2.5 6t2.5 7q0 3 -1 4.5t-1 3.5l2 4q1 3 0 7.5t0 7.5q4 19 2.5 47t-1.5 50v233q0 12 -1 24t1 23q3 16 3 33.5v34.5q0 9 6.5 13
t13.5 6z" />
    <glyph glyph-name="L" unicode="L" horiz-adv-x="386" 
d="M38 733q7 2 17.5 -1t21.5 -1q5 1 12.5 1.5t14 0.5t12 -1.5t6.5 -5.5q2 -8 0.5 -20t-0.5 -22q4 -21 3 -49t-1 -53v-48q0 -12 1 -24.5t-1 -23.5q-1 -8 0 -15q2 -6 0 -13t-3 -13q-4 -16 0 -30v-12q-3 -16 -0.5 -33t0.5 -33l-3 -5q-2 -8 -1 -16t-1 -17q-2 -10 -1 -22t1 -25
q0 -12 -1 -24.5t1 -22.5q1 -5 2 -8.5t0 -8.5q-1 -9 0 -16q2 -14 1 -27t2 -22q1 -4 6 -5.5t11 -1.5t12.5 1t10.5 2q3 0 6.5 -1t6.5 -1q9 -2 21 0t24 0q10 -2 19 -2t18 -2q4 -1 7.5 0t7.5 0q2 0 3 -1t3 -1q4 -1 8 0t6 0q2 0 3.5 -1t3.5 -1q11 -2 23.5 -1.5t15.5 -10.5v-15
q-2 -9 -3.5 -16.5t-3.5 -15.5q-1 -6 0 -12t0 -11q0 -2 -1.5 -4.5t-1.5 -4.5q-2 -6 -2 -8t1 -3t1 -3q-1 -2 -5 -7t-6 -6q-6 -2 -13 -0.5t-12 2.5q-6 2 -12.5 0.5t-13.5 -0.5l-23 4q-5 1 -9.5 0.5t-7.5 -0.5q-4 -1 -5 -1t-6 1q-4 1 -9.5 0t-10.5 0q-4 1 -4.5 1t-5.5 -1
q-7 -2 -18.5 -2t-19.5 2q-5 1 -11.5 1.5t-10.5 -1.5q-2 -1 -2 -2.5t-2 -3.5q-8 -6 -23 -4t-29 0q-6 -1 -19.5 -2.5t-23.5 0.5q-5 1 -10.5 1.5t-7.5 4.5q-3 6 -3 15.5t-1 17.5l-3 6q-1 5 0.5 10.5t-0.5 11.5q-2 14 -1.5 32t-2.5 35q-3 20 0.5 42t-0.5 42q-2 13 -1 31t1 37
q0 12 1 23.5t-1 21.5q-1 7 0 17q2 6 0.5 12t-0.5 12q2 9 4 16.5t0 15.5q0 2 -2 8t-2 9q0 2 1 3.5t1 3.5q2 7 0.5 16.5t-0.5 16.5q2 4 2 6q2 13 0 27t0 26l3 7q1 5 0.5 12.5t1.5 15.5q1 8 0.5 19.5t-0.5 22.5q0 14 -0.5 26.5t-1.5 21.5q-2 12 0 26.5t0 25.5l-3 6
q-2 11 0.5 24t8.5 17q6 3 14.5 2.5t14.5 1.5z" />
    <glyph glyph-name="M" unicode="M" horiz-adv-x="596" 
d="M154 265q-1 -4 0 -7t0 -7q0 -1 -1 -1.5t-1 -2.5q-1 -3 0 -6t0 -5q0 -1 -2 -5q-2 -8 -1 -17.5t-1 -17.5q0 -2 -1 -2.5t-1 -2.5q-2 -8 -1 -16t-1 -16q0 -1 -1 -1.5t-1 -1.5q-1 -4 0 -8.5t0 -9.5q-2 -9 -3 -19t-3 -19q-1 -3 0 -6.5t0 -6.5q0 -2 -1 -2.5t-1 -2.5
q-1 -3 0 -7.5t0 -8.5q0 -2 -1 -2.5t-1 -2.5q0 -3 1.5 -6t0.5 -7q0 -2 -1.5 -3.5t-2.5 -3.5q-2 -7 0 -14.5t0 -14.5q0 -1 -2 -5q-2 -8 -1 -13t-7 -7t-16 -1t-14 3q-11 2 -21 1t-19 -1q-8 0 -16.5 -0.5t-16 0t-13 3.5t-6.5 9q0 2 -0.5 5t-0.5 5q-2 5 0 10t3 10q2 7 0.5 13
t-0.5 11q2 2 2 4q2 8 1.5 17t-0.5 17q0 3 1.5 6.5t2.5 7.5q2 9 0.5 19t0.5 20l2 4q2 4 0.5 7.5t-0.5 8.5q2 2 2 4q1 4 0 8.5t0 9.5q2 2 2 3q2 8 1 15t1 15q0 1 1 2t1 3q2 8 1.5 16.5t0.5 16.5l2 4q2 4 0.5 9.5t-0.5 10.5q2 8 2 15.5t2 17.5q1 2 1 6t1 8q0 2 1 2.5t1 2.5
q2 8 1 17.5t1 17.5l4 14q1 5 0 9t0 8l4 14q1 4 0 8t0 8q0 2 1 2t1 2q2 8 1 16t1 16q1 5 3 12t3 12q2 7 1 14t1 13q0 2 1 2.5t1 2.5q1 4 0 7.5t0 8.5q2 12 4 26l4 28q0 1 2 5q1 5 0 9t0 9q0 1 1 1.5t1 2.5q2 8 1 15.5t1 15.5l4 18q1 2 0 4.5t0 5.5q1 6 1.5 12.5t2.5 13.5
q2 8 2.5 15t8.5 9q5 2 10.5 1t10.5 1q6 2 17.5 2t18.5 -2q11 -2 26 -1t20 -8q2 -3 2 -8t2 -10q1 -5 3 -9t3 -8q1 -5 0.5 -8.5t1.5 -8.5q1 -7 3.5 -13.5t4.5 -12.5q0 -2 -0.5 -3.5t0.5 -2.5q1 -4 2.5 -7t2.5 -7q2 -5 1.5 -9t0.5 -8q1 -5 3.5 -8t2.5 -7q1 -2 0.5 -4t-0.5 -4
q2 -9 5 -18t5 -17q1 -2 0.5 -3t-0.5 -3q3 -14 8 -28.5t8 -29.5l2 -17q2 -7 4.5 -13.5t3.5 -12.5l2 -16q2 -6 3.5 -10t2.5 -12q0 1 1.5 -6t3.5 -7q1 0 4.5 7t3.5 9q2 5 1.5 8t0.5 8q2 8 4 17.5t4 16.5q0 2 -0.5 3.5t0.5 3.5q0 2 1 3t1 2l2 20l6 30q0 3 1.5 6l2.5 5l2 20
q2 14 5 26.5t5 27.5q1 5 2.5 10.5t2.5 11.5q1 2 0.5 4.5t-0.5 5.5l7 18q1 3 0 6.5t0 6.5q1 5 2.5 11t2.5 11q3 12 5 21t15 11q11 2 24 0t22 0q2 2 3 2q11 2 21 -1t22 -1q1 0 1.5 1t1.5 1q2 1 6.5 0t8.5 -2q10 -2 12 -9q1 -2 0 -5t0 -6l4 -9q1 -5 -0.5 -8.5t0.5 -9.5
q0 -2 1 -2.5t1 -2.5q2 -6 1 -13.5t1 -13.5l4 -18q1 -2 0 -5t0 -5l4 -18q0 -4 -0.5 -7.5t0.5 -8.5q1 -2 2.5 -7t1.5 -9q0 -1 -1 -2t-1 -3t1 -2.5t1 -2.5q1 -2 0.5 -4.5t-0.5 -4.5l4 -18q0 -3 -0.5 -5.5t0.5 -4.5l2 -4q2 -9 1 -19t1 -18q0 -2 1 -2.5t1 -2.5q1 -4 0 -7.5
t0 -8.5q0 -1 1 -1.5t1 -2.5q1 -4 0 -8t0 -9q1 -6 2 -10.5t2 -9.5l1.5 -4.5t0.5 -4.5q-2 -2 -2 -4q0 -4 1.5 -7.5t2.5 -7.5q1 -6 -0.5 -12t0.5 -11q1 -4 2 -7l2 -6q0 -2 -1 -4.5t-1 -4.5q0 -1 2 -5q0 -2 -0.5 -4.5t0.5 -4.5l4 -18q1 -7 -0.5 -13t0.5 -11q0 -1 2 -3
q1 -8 0.5 -15t0.5 -13q1 -2 2 -3t1 -3t-1 -3.5t-1 -4.5q0 -2 1.5 -4t2.5 -4q0 -3 -1 -5t-1 -5q0 -2 1.5 -4t2.5 -4q1 -8 -0.5 -17.5t0.5 -16.5q0 -2 2 -4q0 -3 -0.5 -6t0.5 -6q0 -1 0.5 -1.5t0.5 -2.5q2 -4 0.5 -7.5t-0.5 -7.5l2 -4q2 -8 0.5 -15t-0.5 -13l3 -5q1 -3 0 -6.5
t0 -6.5q0 -2 2 -4q2 -8 1 -16t1 -16q0 -1 0.5 -1.5t0.5 -2.5q2 -4 0.5 -6t-1.5 -7q0 -1 0.5 -2t0.5 -3q2 -8 1 -20t-6 -14q-2 -1 -5 0t-5 0q-2 0 -2.5 -1t-2.5 -1q-3 -1 -6 -0.5t-5 0.5l-18 -4q-4 -1 -8 0t-8 0q-1 0 -2 -1t-2 -1q-5 -1 -9 0t-9 0t-11.5 -2t-13.5 -1t-12.5 2
t-6.5 6q-2 4 -2 9q-2 10 -1 22t-1 23q-2 4 -2 5q-1 3 -0.5 6.5t0.5 6.5l-2 4q-2 8 -1 17.5t-1 18.5q-2 2 -2 4q-2 8 0 16t0 16q0 1 -1 1.5t-1 1.5q-2 11 -1 22t-1 22q0 1 -1 2t-1 2q-1 4 0 7.5t0 6.5q-2 4 -2 5q-2 8 -1 16t-1 15q-1 2 -1.5 1.5t-0.5 1.5q-1 2 0 6t0 8l-2 9
v2q0 2 -2 2l-1.5 -4.5t-3 -10l-3 -11t-1.5 -8.5q-2 -10 -2 -16.5t-2 -14.5q0 -2 -1 -2.5t-1 -2.5l-2 -20q0 -1 -1 -1.5t-1 -1.5l-2 -12l-2 -20q-2 -8 -4 -17t-4 -17q-1 -3 0 -6.5t0 -7.5q0 -2 -1.5 -3.5t-2.5 -3.5q-1 -5 -0.5 -10t-1.5 -10q-1 -6 -2.5 -10.5t-3.5 -9.5
q-1 -4 0 -7t0 -7q0 -3 -2.5 -6t-2.5 -7q0 -1 1 -2t0 -2q0 -3 -2.5 -6.5t-3.5 -8.5t-1.5 -9t-3.5 -5q-2 -1 -5 -0.5t-5 0.5q-17 -3 -42 -3t-40 3q-6 1 -10 0t-6 4q-4 8 -5 18.5t-3 20.5q-2 9 -4.5 17t-4.5 16q0 2 0.5 3.5t-0.5 3.5q-2 10 -3.5 19t-3.5 19q-2 8 -4 18.5
t-4 20.5q-2 8 -4.5 15t-3.5 14q-1 2 -0.5 3.5t0.5 3.5q-2 8 -4 14.5t-4 13.5q0 2 0.5 4t-0.5 4q-1 5 -3 10t-3 10q-2 9 -4 16t-4 15z" />
    <glyph glyph-name="N" unicode="N" horiz-adv-x="539" 
d="M64 733q4 1 7 0l6 -2q5 -1 12.5 -0.5t15.5 0.5t15 -0.5t12 0.5l4 2t5 0q8 -2 14.5 -3.5t9.5 -9.5q2 -3 2 -7.5t2 -7.5q3 -8 4 -19q2 -9 6 -18t6 -18v-6q1 -5 2.5 -8.5t3.5 -8.5q1 -3 0.5 -6.5t1.5 -6.5q0 -2 1.5 -4.5t2.5 -5.5l2 -12l8 -26v-4q0 -2 1.5 -4.5t2.5 -4.5
q1 -5 0.5 -8.5t1.5 -7.5q0 -4 2.5 -8.5t3.5 -7.5q0 -2 -0.5 -4t0.5 -4q1 -5 2.5 -10t2.5 -10l4 -13q2 -8 4 -15t4 -15q2 -5 3.5 -8.5t2.5 -8.5q3 -10 5.5 -20t4.5 -19q1 -2 2 -4.5t2 -5.5q4 -14 6.5 -26.5t7.5 -25.5l6 -17l6 -17q0 1 2 -5q1 -3 3 -6q2 2 3 4t1.5 3.5
t1.5 2.5q3 6 3.5 13.5t2.5 15.5q1 8 3.5 15.5t4.5 14.5q0 2 -0.5 4t0.5 4l3 24q2 5 4 9t3 9q1 6 0.5 11.5t1.5 10.5q0 3 1.5 5.5t1.5 5.5q1 2 0.5 5t-0.5 5q2 11 5 21t5 21q2 6 1.5 12t0.5 11q2 5 3.5 11.5t2.5 11.5q1 2 0.5 4.5t-0.5 5.5q2 8 4 14.5t4 14.5q1 2 0.5 3.5
t-0.5 3.5q1 2 1.5 2.5t0.5 2.5q1 2 0.5 4t-0.5 4q2 5 3.5 9t2.5 9l2 19q2 8 4.5 14t3.5 12q1 3 0.5 5.5t-0.5 4.5q2 8 7 16.5t11 10.5q8 2 13 -1.5t11 -5.5q6 -1 11.5 -0.5t10.5 -1.5q4 0 7.5 -2t8.5 -3q5 -2 10.5 -2.5t9.5 -1.5q5 -2 10 -1t11 -1q3 -2 6.5 -6.5t2.5 -9.5
q0 -2 -1 -2.5t-1 -1.5q0 -2 0.5 -5t-0.5 -5q-2 -8 -4.5 -14.5t-3.5 -11.5q0 -2 0.5 -4t-0.5 -4l-2 -12q-1 -5 -3 -9t-3 -9l-2 -20q-1 -6 -2.5 -12t-3.5 -11q-1 -5 -0.5 -9.5t-1.5 -8.5q0 -2 -1 -2.5t-1 -1.5q-2 -8 -2 -15t-2 -15q0 -3 -1.5 -5.5t-2.5 -4.5q0 -2 0.5 -4
t-0.5 -4q0 -2 -1.5 -4.5t-2.5 -5.5q-1 -5 -0.5 -11t-1.5 -11q-2 -8 -2.5 -17.5t-2.5 -19.5q-1 -4 -1.5 -6.5t-0.5 -5.5q-1 -3 -2.5 -5.5t-2.5 -4.5q0 -2 0.5 -4t-0.5 -4q0 -3 -1.5 -5t-1.5 -5q-2 -8 -2 -12q-2 -6 -1.5 -12.5t-0.5 -12.5q-1 -5 -3 -10t-3 -10t0 -8.5t0 -6.5
q-1 -2 -2 -1.5t-2 -1.5t-0.5 -5t0.5 -5t-1 -2.5t-1 -1.5q-1 -2 -0.5 -4.5t0.5 -4.5q-1 -3 -2.5 -6.5t-1.5 -6.5q-2 -6 -1 -11t-1 -13l-4 -11q-1 -5 -0.5 -9t-1.5 -9q0 -2 -1 -2.5t-1 -2.5q-2 -5 -1.5 -10t-0.5 -10q-1 -2 -2.5 -3.5t-1.5 -3.5q-1 -2 -0.5 -4.5t0.5 -5.5
l-4 -12l-6 -33q-1 -2 -0.5 -4t0.5 -4l-4 -8l-2 -20q-1 -5 -3 -10t-3 -10v-6q-1 -6 -3 -11.5t-3 -10.5q0 -2 0.5 -4t-0.5 -4q-1 -6 -5.5 -12.5t-8.5 -7.5q-5 -2 -12 -0.5t-12 0.5q-1 0 -1.5 -1t-2.5 -1q-4 -2 -11.5 0t-13.5 0q-2 0 -2.5 -1t-1.5 -1q-5 -1 -11.5 0t-12.5 0
q-11 -2 -19.5 -0.5t-13.5 9.5q-1 2 -0.5 3.5t-1.5 3.5q-3 10 -8.5 19.5t-9.5 20.5q0 2 -1.5 3t-1.5 3q-2 2 -1.5 5t-0.5 5l-17 44q0 2 -1 3t-2 3q-5 12 -8 25.5t-8 25.5q-1 2 -2 3.5t-2 3.5q-3 7 -4.5 14t-3.5 12q-4 11 -7 24t-7 25q-3 8 -5.5 13.5t-4.5 12.5q0 1 -1 2
q-2 0 -2 -6v-5q0 -1 -1 -2t-1 -2q-1 -4 0 -9t0 -7q0 -2 -1 -2.5t-1 -1.5q-1 -4 0.5 -10t-0.5 -12q0 -1 -1 -1.5t-1 -1.5q0 -3 0.5 -5.5t-0.5 -4.5q-1 -6 -0.5 -9.5t-1.5 -10.5q-1 -7 -0.5 -12.5t-1.5 -13.5q0 -2 -1 -2.5t-1 -1.5q-2 -9 -1 -19.5t-1 -20.5l-2 -4
q-1 -3 0 -6.5t0 -7.5q0 -1 -2 -3q-1 -3 0 -6.5t0 -7.5q-1 -7 -2.5 -13t-3.5 -11q-1 -4 0.5 -8.5t-0.5 -6.5q0 -1 -4.5 -4t-4.5 -4q-5 -2 -13 -0.5t-13 2.5q-7 2 -15.5 0.5t-13.5 -0.5l-4 3q-12 2 -23 1t-23 1q-3 0 -7 5t-2 11q0 2 0.5 2t0.5 2q2 6 0 12.5t0 13.5q2 2 2 4
q2 6 0.5 12.5t-0.5 12.5l2 4q1 3 0.5 6t-0.5 5q1 3 3 5q2 9 0.5 20t0.5 22l2 4q2 7 0 14t0 13l4 18q2 9 1 19.5t1 18.5q0 1 1 1.5t1 2.5q2 5 0.5 9t-0.5 9q2 11 1 21t1 20q2 7 1.5 13t0.5 11l3.5 10.5t0.5 9.5q-1 4 0 10q1 5 0 10t0 10q1 3 2.5 6t1.5 6q2 6 0.5 12.5
t-0.5 13.5q2 12 1 25t1 24q1 4 3 11t1 12t-1.5 8.5t1.5 10.5q2 9 1 22t1 23q0 2 1 2.5t1 1.5q1 5 0 10t0 10q0 1 1 1.5t1 2.5q1 4 0 5.5t-2 6.5t0 7.5t2 6.5q2 10 0 22t0 24q2 8 3 16.5t-1 14.5q-2 4 0 12q4 10 12 12q2 1 4.5 1t4.5 1z" />
    <glyph glyph-name="O" unicode="O" horiz-adv-x="538" 
d="M223 744q5 1 14 0.5t14 -2.5q2 -1 6.5 0t7.5 0q1 0 2 -1t2 -1q5 -1 10 -0.5t10 -1.5q35 -10 62 -37l11 -11l6 -12q4 -5 8.5 -11t7.5 -13q2 -5 4 -12.5t7 -8.5q3 0 5 2t6 4q1 1 3 1t3 1q3 2 5.5 4.5t4.5 3.5q7 3 14 0q2 -1 5.5 -5t4.5 -6q0 -2 -0.5 -3t0.5 -3q0 -1 1.5 -1
t1.5 -1q2 -2 1.5 -3.5t0.5 -3.5q2 -2 6 -4q2 -3 4 -8t5 -9q3 -5 8 -12t9 -13q2 -3 2 -6t2 -6t4 -6.5t0 -9.5q-1 -3 -6.5 -8.5t-8.5 -7.5q-11 -8 -20 -14l-21 -14q-2 -1 -5.5 -4t-3.5 -5q-1 -1 -0.5 -3.5t0.5 -4.5q-1 -4 -1.5 -4t1.5 -3q2 -8 0 -19.5t0 -17.5q0 -2 1.5 -2.5
t1.5 -1.5q2 -4 1 -11t-1 -15v-25q0 -13 1 -26.5t-1 -23.5q-1 -7 0 -13q1 -4 0 -7t-2 -5q-1 -5 0 -10t0 -8q0 -2 -0.5 -2.5t-0.5 -1.5q-2 -5 -0.5 -9.5t0.5 -8.5q-1 -2 -2.5 -3.5t-1.5 -3.5q-2 -8 -1 -17.5t-1 -17.5l-3 -4q-1 -5 -0.5 -9t-0.5 -9l-12 -57q-2 -7 -5 -13.5
t-5 -13.5q-3 -7 -4 -13q-2 -7 -6 -13t-6 -12q-3 -8 -6 -15.5t-8 -14.5l-6 -5l-10 -17q-2 -3 -5.5 -6t-6.5 -6q-8 -8 -15 -12q-7 -5 -12.5 -10.5t-14.5 -7.5q-3 -1 -7 -3.5t-9 -4.5l-18 -6q-4 -1 -8.5 0t-8.5 0t-11.5 -1.5t-16 -0.5t-16.5 0.5t-12 1.5t-8 0t-8 0t-7.5 3
t-7.5 3h-4q-5 1 -9 3.5t-9 4.5q-10 3 -20 10q-2 2 -2.5 3.5t-2.5 2.5q-7 3 -12 7.5t-11 10.5q-5 5 -10 11.5t-10 12.5l-2 7q-5 8 -11.5 17t-10.5 18q-2 6 -5 11.5t-5 10.5l-6 22q-2 5 -4 10.5t-4 11.5q-2 8 -2 13.5t-2 13.5t-4 19.5t-4 19.5q-1 5 -0.5 10t-0.5 10l-3 4
q-2 8 -1 17t-1 19q0 2 -1.5 5t-1.5 6q-2 9 -1 20.5t1 21.5q0 11 -1 22.5t1 19.5q0 3 1.5 8.5t-0.5 10.5q0 4 -0.5 4.5t0.5 4.5q2 5 2.5 12t1.5 12q2 5 0.5 9.5t-0.5 9.5l3 4q1 5 0.5 9.5t0.5 8.5l2 14q3 15 6.5 25.5t5.5 24.5q2 9 7 17.5t7 17.5v4q2 5 5 10t5 10
q7 17 17 33.5t21 33.5l3.5 3.5l3.5 3.5q11 15 26 26l4.5 4.5l4.5 4.5l22 14q7 4 14 6.5t15 5.5q5 2 10.5 4.5t11.5 3.5q2 1 5 0.5t5 -0.5q2 2 4 2q3 1 6.5 1t5.5 1zM126 483q-1 -9 -2.5 -16t-3.5 -15q-1 -6 -1.5 -12.5t-2.5 -11.5q0 -2 0.5 -6t-0.5 -8q0 -2 -1 -2.5t-1 -1.5
q1 -2 2 -3.5t0 -3.5q0 -4 -1.5 -9.5t-1.5 -8.5q-2 -5 -0.5 -11t0.5 -11q-4 -13 0 -24q1 -5 -0.5 -10t0.5 -10q0 -1 0.5 -1.5t0.5 -1.5q2 -6 0.5 -11.5t-0.5 -10.5q2 -4 2.5 -9.5t1.5 -8.5q2 -5 1.5 -11t0.5 -11l3 -5q1 -6 2 -14.5t3 -14.5q2 -4 2 -8t2 -9q11 -35 28 -61
q4 -6 8.5 -13t9.5 -11q4 -2 8.5 -4t7.5 -4l3.5 -3.5t3.5 -2.5q4 -2 12.5 -2t13.5 2q3 1 6 3l6 4q2 2 3.5 2t3.5 1q7 5 14 14q3 4 4.5 8.5t3.5 9.5q1 2 2 2.5t2 1.5q2 2 2.5 5.5t1.5 6.5q4 8 8 19t6 20q3 10 5.5 21.5t4.5 22.5q0 2 -0.5 3.5t0.5 3.5q0 2 0.5 2.5t1.5 2.5
q2 8 2 15.5t2 15.5q2 10 0 20t0 20q0 2 1.5 5t1.5 7q2 5 2 8v6q2 5 1 15t-3 14q-2 7 -1 16.5t1.5 18t-0.5 15.5t-5 9q-3 2 -7.5 0.5t-8.5 -2.5q-3 -1 -7 0t-9 0q-2 -2 -3 -2q-8 -2 -17 -0.5t-13 2.5q-5 1 -10.5 0t-9.5 0q-2 0 -2.5 1t-2.5 1q-6 2 -10.5 1t-9.5 1
q-8 2 -13.5 5t-11.5 6q-11 6 -20 11t-15 14q-1 1 -2.5 3.5t-5.5 -0.5zM211 620q-2 0 -3.5 -2t-3.5 -3q-2 -2 -5 -3t-4 -3q-5 -5 -2.5 -10t5.5 -9q5 -7 10.5 -10t12.5 -7q5 -2 9.5 -5t8.5 -4q10 -2 12 -2q5 -2 10.5 -1t10.5 3q3 1 6 0t5 0q7 2 5 13q-2 10 -9 19t-15 14
q-3 2 -6 2.5t-5 2.5q-2 1 -3 3t-3 2q-2 1 -3.5 0.5t-3.5 -0.5q-4 1 -9 2t-10 0q-2 0 -5 -0.5t-5 -1.5z" />
    <glyph glyph-name="P" unicode="P" horiz-adv-x="449" 
d="M23 751q15 1 32 0.5t30 -2.5q11 -2 21 -0.5t18 -1.5q5 -3 10 -9t11 -7q2 -1 5 -0.5t5 0.5t2.5 -1t1.5 -1q3 -1 6 0t5 0l27 -6q2 0 5 0.5t6 -0.5q13 -2 26.5 -8t26.5 -10q16 -4 28 -12q7 -5 14 -8t13 -8q3 -2 6.5 -6.5t8.5 -8.5q5 -5 9 -10l8 -10q5 -8 11 -14.5t9 -14.5
v-4l3 -6t3 -8q1 -4 3.5 -7.5t3.5 -8.5q1 -2 0.5 -3t-0.5 -2q1 -2 2.5 -4.5t2.5 -5.5q0 -2 -0.5 -3t0.5 -3q0 -2 1.5 -4t2.5 -4q0 -2 -0.5 -4t0.5 -4q0 -1 2 -3q2 -10 0.5 -21t0.5 -21l3 -5q2 -13 0 -25q0 -1 -1 -2t-1 -2q0 -3 1 -5t1 -5q0 -2 -1 -2.5t-2 -2.5
q-1 -7 -0.5 -14t-0.5 -13q-2 -6 -2 -12q-2 -6 -4.5 -12t-4.5 -12v-5q0 -2 -2 -4t-3 -4q-2 -4 -2.5 -7.5t-2.5 -6.5q-5 -11 -12.5 -21.5t-15.5 -21.5q-4 -7 -11 -11q-13 -9 -29.5 -20t-31.5 -17q-6 -2 -13 -3.5t-14 -3.5q-4 -2 -7.5 -4t-7.5 -3q-3 0 -6.5 0.5t-5.5 -0.5
q-7 -1 -13 -2.5t-13 -2.5q-2 -1 -4.5 -0.5t-5.5 0.5l-4 -3q-3 -1 -6.5 0t-7.5 0q-8 -1 -15 -1.5t-13 -2.5q-6 -1 -10 -1t-5 -6q0 -1 0.5 -2t0.5 -2q0 -2 -1.5 -5t-0.5 -8l3 -5q2 -8 0 -18.5t0 -20.5q0 -2 2 -4q2 -11 0.5 -23t1.5 -23l2 -4q1 -6 -0.5 -12t0.5 -11q0 -3 1 -9
t2 -9q1 -4 -0.5 -6t-1.5 -5t2 -9l3 -9t-0.5 -7.5t0.5 -9.5q1 -7 2 -18t-6 -13q-2 -1 -5.5 0t-5.5 0q-1 0 -3 -2q-5 -1 -11 -0.5t-15 -1.5q-1 0 -5 -2q-7 -2 -15 -1t-16 -1l-16 -2q-6 -1 -12 -1t-9 6q-1 5 -0.5 9t-0.5 10l-3 5q-1 5 -0.5 12t-1.5 13q0 2 -2 4q0 3 0.5 6
t-0.5 6q-2 16 -2.5 32.5t-2.5 32.5q-1 2 -0.5 5t0.5 5l-3 5q-1 5 0 12.5t0 12.5q-1 7 0 12q2 8 0 18l-4 20q-2 11 -1 24t1 25t1 24.5t-1 23.5t-2.5 24t1.5 24t1.5 30t-0.5 33q0 16 -1 31.5t1 28.5q2 9 0 16q-1 5 0 9t2 9q2 7 1 12.5t1 13.5l3 4q2 8 1 20.5t1 23.5
q1 7 -0.5 12.5t-1.5 9.5q0 2 0.5 3l1.5 3q1 5 -0.5 11.5t0.5 11.5q1 4 2.5 11t0.5 12t0 11q2 8 0 17.5t0 19.5l2 4q1 5 0 10t0 10q2 10 12 12v1zM124 584q1 -5 1 -6t-1 -5q-1 -5 0 -11t0 -11q-1 -4 -2 -11t0 -12q0 -2 1 -2.5t1 -2.5q0 -3 -2.5 -6.5t-2.5 -5.5q0 -1 1 -2.5
t2 -3.5q1 -5 -1.5 -9t-1.5 -8l3 -4q2 -11 0 -21q-1 -3 -2.5 -5.5t-1.5 -5.5q-2 -5 -0.5 -10t0.5 -10q-2 -7 -3 -14t1 -13q0 -2 0.5 -2t1.5 -2q1 -6 0.5 -11.5t0.5 -10.5q1 -4 6 -5t10.5 -1t11 1t8.5 1q3 1 7 0.5t6 -0.5q2 1 2.5 1.5t2.5 1.5q37 8 64 26t34 57q2 12 0.5 27.5
t-3.5 25.5q-7 29 -23 49.5t-40 29.5l-26 8q-2 1 -3.5 2t-3.5 2l-20 2q-4 1 -9.5 2t-10.5 -1q-4 -2 -7 -10t-1 -14z" />
    <glyph glyph-name="Q" unicode="Q" horiz-adv-x="522" 
d="M198 746q4 1 9 0t8 -2q8 -2 16.5 -1t17.5 -1q1 0 3 -2q3 0 6 0.5t6 -0.5q5 -1 10 -3.5t10 -4.5l9 -2q12 -4 22.5 -12t19.5 -17q4 -4 6.5 -7t5.5 -7q2 -4 6 -8t7 -9l10 -20q3 -6 6 -11.5t4 -8.5q0 -2 -0.5 -2.5t0.5 -2.5q1 -3 2.5 -5t3.5 -6q2 -6 2 -10t2 -11q1 -4 3 -7.5
t3 -8.5q2 -8 2 -15.5t2 -15.5q0 -1 1 -2t1 -2q2 -8 2 -15t2 -15q0 -1 1 -2t1 -2q1 -5 0 -10t0 -10q0 -1 1 -1.5t1 -2.5q1 -3 0 -6.5t0 -6.5q0 -3 1.5 -5.5t2.5 -4.5q1 -6 0.5 -12.5t1.5 -11.5q1 -5 -1.5 -9t-0.5 -9q0 -2 2 -4q1 -4 -0.5 -10t0.5 -11q2 -8 1.5 -22.5
t-0.5 -27.5q0 -14 0.5 -28t-1.5 -22q-2 -4 -1.5 -9t1.5 -8q0 -4 0.5 -4.5t-0.5 -4.5t-0.5 -8t0.5 -8q-2 -2 -2 -4q-1 -3 0 -7t0 -7q-2 -2 -2 -4q-2 -9 -1 -18t-1 -17q0 -2 -1 -2.5t-1 -2.5q0 -8 8 -12.5t16 -8.5t12.5 -5.5t12.5 -3.5q6 -2 14 -5t10 -9q1 -3 0 -6t-1 -6
q0 -2 0.5 -5.5t-1.5 -8.5q0 -2 -1 -2.5t-1 -2.5q-1 -2 0 -5t0 -5q-1 -3 -1.5 -2.5t-0.5 -3.5q0 -2 -1.5 -4.5t-2.5 -4.5q0 -2 0.5 -4t-0.5 -4q-1 -5 -3 -8.5t-3 -7.5q0 -1 0.5 -2t-0.5 -3q-1 -3 -2 -3.5t-2 -5.5q-1 -4 -5 -10.5t-6 -8.5q-5 -1 -12.5 -1t-12.5 1l-22 7
q-2 0 -3.5 1.5t-3.5 1.5q-6 2 -13.5 3.5t-12.5 5.5q-2 2 -4 4.5t-7 0.5l-1 -4q-3 -3 -7 -6.5t-7 -8.5t-9.5 -11.5t-10.5 -8.5q-11 -8 -24 -16.5t-27 -13.5q-3 -2 -9 -4q-7 -2 -14.5 -2t-16.5 -2q-2 0 -2 -1t-2 -1q-6 -2 -20.5 -2t-20.5 2q-2 0 -2.5 1t-2.5 1q-8 2 -14 1
t-14 1q-5 1 -9 3.5t-9 4.5q-8 3 -16.5 7.5t-14.5 8.5q-5 4 -10 8.5t-10 8.5q-4 2 -8.5 7.5t-7.5 9.5q-6 8 -11 18t-11 20q-3 5 -4 11t-4 13q-1 1 -2 1.5t-2 2.5q-2 3 -2 8.5t-2 10.5q-2 7 -4 12.5t-4 13.5q-1 5 -3 8.5t-3 8.5t-0.5 8.5t-1.5 8.5l-4 11q-1 6 -0.5 12t-1.5 12
l-2 4q0 3 0.5 6t-0.5 6q0 2 -0.5 4.5l-1.5 7.5q0 2 -1.5 4.5t-2.5 5.5q-2 7 0 14.5t0 14.5q0 4 -2 14q-2 14 -1.5 27.5t-1.5 26.5q-3 5 0 16q0 5 1.5 14t-0.5 17q-1 9 0 21q2 6 0 13.5t0 15.5q2 2 2 4q2 5 0.5 10t-0.5 10q2 2 2 4q1 5 0 10t0 9l3 5q1 5 0.5 10t0.5 10
q1 2 1.5 2t0.5 2q2 3 1 6.5t-1 6.5q1 5 3 9t3 9q2 11 4 18t4 18q2 6 5 11t5 12l2 10q4 11 11 21.5t13 20.5q9 14 22.5 26.5t27.5 21.5q2 1 3.5 1t2.5 1q5 4 9.5 6t10.5 4q5 2 8.5 4.5t8.5 3.5l34 6q3 1 7 1t6 1zM199 622q-2 0 -7.5 -3t-9.5 -5q-12 -8 -20 -20t-16 -26
l-10 -20q-2 -5 -2 -10t-2 -11q-1 -4 -3 -7.5t-3 -8.5q0 -2 0.5 -3.5t-0.5 -3.5q-1 -7 -2.5 -14t-3.5 -13q-1 -6 -0.5 -10.5t-1.5 -10.5q0 -2 -1 -2.5t-1 -1.5q0 -2 1.5 -3.5t0.5 -4.5q-1 -4 -2.5 -11t-1.5 -10q1 -5 0 -9q-1 -5 -0.5 -11t-0.5 -13q-4 -13 0 -27
q2 -13 0.5 -25t0.5 -22q1 -4 2.5 -9t1.5 -7q2 -5 0.5 -10t-0.5 -10q2 -2 2 -4q1 -2 0 -4t-1 -4t2 -8q1 -3 2 -5q1 -1 7 -1t8 1q2 0 6 1.5t6 1.5q3 1 8 0.5t7 -0.5l4 2q3 1 6.5 0t7.5 0l7.5 1.5t7.5 -1.5q11 -2 22 0t20 0q1 0 3 -2q3 0 7 0.5t7 -0.5q2 0 4.5 -1.5t5.5 -1.5
q2 -1 3 -0.5t3 0.5q4 -1 7 -4t9 -1q8 3 7.5 16t-0.5 25q0 8 0.5 17t-0.5 14q-1 3 -1 3.5t1 4.5q2 8 0.5 23t-2.5 20q-2 5 -0.5 10t0.5 10q0 1 -1 2t-1 2q-2 11 -1 25.5t-1 23.5q-1 5 0 10t0 10q0 2 -1 2.5t-1 2.5q-2 5 -0.5 9.5t0.5 9.5l-2 4l-2 18q-1 2 -1 6t-1 8
q-1 5 -2.5 10.5t-3.5 11.5q-4 14 -11 28.5t-15 25.5q-5 6 -10.5 8.5t-10.5 6.5q-2 1 -3 3t-3 2q-4 2 -8.5 1.5t-6.5 -0.5h-4.5t-4.5 -1zM185 132q-2 0 -4 0.5t-4 -0.5q-5 -1 -10 -3.5t-3 -7.5t10.5 -10.5t12.5 -6.5q13 -3 26 0q2 0 4 -0.5t4 0.5l10 5q5 2 11.5 5.5t5.5 8.5
q0 5 -9.5 8t-14.5 4q-2 1 -5 0t-5 0q-3 1 -5 1.5t-6 -0.5h-6t-7 -1z" />
    <glyph glyph-name="R" unicode="R" horiz-adv-x="434" 
d="M21 736q3 1 11 1t13 -1q3 -1 10 -2t13 0q5 1 7.5 2t6.5 0q2 0 4 -2q6 -1 12 0.5t12 -0.5q2 0 4 -2q3 0 6 0.5t5 -0.5q1 0 5 -2q3 0 6 0.5t5 -0.5q2 0 2.5 -1t2.5 -1q5 -2 10.5 -1.5t10.5 -0.5q3 0 5.5 -1.5t4.5 -2.5q4 -1 8.5 -0.5t8.5 -1.5q2 0 3.5 -1.5t3.5 -2.5
q10 -4 20.5 -6t19.5 -8l17 -11l19 -11q5 -4 11.5 -12t10.5 -13q2 -2 4.5 -4t4.5 -4l6 -10q2 -2 3.5 -4.5t2.5 -4.5v-3q4 -8 9 -15.5t8 -16.5q2 -6 2.5 -13t2.5 -14l2 -15q2 -11 1 -23.5t1 -24.5l3 -6q0 -2 -0.5 -4.5t0.5 -4.5q0 -2 0.5 -2.5t0.5 -1.5q1 -5 -1 -9.5t-3 -8.5
q-1 -5 0 -10t0 -10q-1 -7 -3.5 -13.5t-3.5 -13.5q-1 -2 -0.5 -3t0.5 -3q-2 -9 -8 -17t-8 -16l-2 -4l-2 -2q-3 -4 -5 -9.5t-6 -10.5q-4 -6 -8 -10.5t-8 -10.5q-5 -6 -10 -10t-3 -15q1 -3 2.5 -6.5t3.5 -6.5t5.5 -6.5t4.5 -7.5v-5q2 -5 6 -9t6 -10q0 -1 -0.5 -2.5t0.5 -2.5
q0 -1 1.5 -1t1.5 -1v-4q2 -4 5.5 -7.5t4.5 -7.5v-4q2 -8 9 -17t10 -20q1 -5 4 -9t5 -9l2 -9q4 -9 9 -17t7 -14v-5q2 -6 6 -11.5t6 -11.5q1 -5 0.5 -12.5t-2.5 -9.5t-4.5 -2.5t-4.5 -2.5q-3 -2 -3.5 -2.5t-4.5 -1.5q-3 -1 -7 -4t-9 -5q-1 -1 -2 -0.5t-2 -0.5q-5 -2 -10 -5
t-10 -4h-3q-9 -4 -19.5 -10t-24.5 -2q-6 2 -9 8.5t-5 13.5q-2 5 -5 9.5t-5 9.5t-3 9t-3 9q-1 4 -2.5 7t-3.5 8q-4 11 -10 20.5t-10 21.5q-2 8 -7.5 16.5t-9.5 16.5q-5 11 -10 20.5t-10 17.5q-3 5 -6 12t-9 9t-9.5 -0.5t-8.5 -3.5q-3 -1 -6 -0.5t-6 0.5q-6 -2 -12 -8t-6 -14
q0 -2 1 -2.5t1 -2.5q2 -10 1 -22t-1 -24q0 -11 -1 -22.5t1 -22.5q1 -5 2.5 -16t-0.5 -18q0 -2 -1 -3t-1 -2q0 -5 3 -9t2 -9q-1 -2 -2 -3t-1 -3t1 -3t2 -3q0 -4 0.5 -7.5t0.5 -5.5q2 -8 0 -14t-4 -14t-0.5 -13t-6.5 -7q-4 -1 -9 0t-9 0q-9 -2 -22.5 -2t-25.5 -2q-5 -1 -11 0
t-10 2q-5 1 -10 0t-7 0q-3 2 -6 10t-3 13q0 2 1 2.5t1 2.5q2 8 1 19.5t-1 22.5t1 22t-1 19q-6 30 0 62q2 5 0.5 10.5t-2.5 9.5q0 3 0.5 6.5t-0.5 6.5q-3 20 -2.5 49.5t0.5 53.5q0 10 0.5 19.5t1.5 16.5q2 9 0 18.5t-3 14.5q-2 5 -1 12.5t1 14.5q0 18 0.5 31.5t0.5 33.5
q0 8 1 17t-1 16q-2 13 -2 28.5t2 29.5q3 15 1.5 31.5t0.5 29.5l2 4q2 9 0.5 17t-0.5 14l3 6q1 4 0 8.5t0 8.5q0 2 0.5 2.5t0.5 2.5q2 8 0 16.5t0 16.5t6.5 14t8.5 8zM116 590q-1 -5 0.5 -13t-0.5 -14q0 -2 -2 -4q0 -3 0.5 -7t-0.5 -7q0 -4 -0.5 -7t0.5 -9q2 -14 0 -29t0 -28
q4 -17 3 -36.5t1 -30.5q1 -4 -0.5 -6.5t-1.5 -4.5t1 -2.5t1 -2.5q2 -8 3.5 -11.5t12.5 -1.5q5 1 11 4t11 5q15 6 29 14t23 20q6 8 12.5 18.5t10.5 20.5q1 5 2.5 14t1.5 19t-0.5 19t-2.5 15q-11 40 -36 65q-10 10 -20.5 16.5t-24.5 11.5q-2 1 -3.5 2.5t-3.5 1.5q-3 1 -10 1
t-9 -1q-5 -3 -6 -14t-3 -18z" />
    <glyph glyph-name="S" unicode="S" horiz-adv-x="478" 
d="M209 750q5 1 11 0t10 -2q5 -2 11.5 0t12.5 0q1 0 1.5 -1t2.5 -1q5 -1 11 -0.5t11 -1.5q2 0 3 -0.5t5 -1.5q3 -1 8 -3.5t10 -4.5t9.5 -5t9.5 -6q2 -2 4 -2t4 -1q2 -2 3.5 -4t3.5 -4q8 -5 14 -11.5t11 -12.5q2 -3 4 -4.5t4 -3.5q1 -2 1 -3.5t2 -3.5l5 -8q5 -8 10.5 -17
t7.5 -15v-6q1 -2 2 -2.5t2 -2.5v-5q2 -8 6 -17.5t6 -17.5q1 -5 0.5 -8.5t1.5 -9.5q0 -3 1.5 -6l2.5 -5q1 -3 0 -7t0 -6q1 -7 2.5 -15.5t1.5 -16t-2.5 -13.5t-9.5 -8q-2 0 -5 0.5t-5 -0.5q-1 0 -2 -0.5t-2 -0.5q-7 -2 -12.5 -1t-13.5 -1l-4 -3q-8 -2 -15.5 0t-16.5 0
q-11 -2 -21.5 -0.5t-12.5 12.5q-1 2 0 5t0 7q-1 5 -3 10t-3 10q-2 9 -3.5 18t-4.5 17l-6 13l-4 9q-5 8 -11.5 16.5t-14.5 13.5q-3 2 -8 3.5t-7 3.5q-2 1 -2 2t-2 1q-2 1 -5 0t-5 0q-4 1 -4.5 1t-5.5 -1q-2 -1 -5 0t-5 0q-2 0 -2 -1t-2 -3l-15 -6q-8 -5 -15 -16.5t-9 -22.5
l-2 -17q0 -11 -1 -28t1 -26q4 -14 8 -26t12 -23l4 -4t4 -5q2 -5 8.5 -11.5t11.5 -9.5q3 -2 6.5 -5.5t5.5 -4.5q9 -5 17 -11.5t16 -12.5l7 -2l21 -15q3 -2 6.5 -3.5t6.5 -3.5q5 -3 11.5 -8t11.5 -9q2 -2 5.5 -3.5t5.5 -3.5l10 -8q4 -2 7 -6.5t7 -8.5q10 -9 17 -17
q5 -8 10.5 -15.5t10.5 -15.5l2 -7q4 -5 6 -9t4 -12l6 -17q0 -3 -0.5 -5.5t0.5 -4.5q1 -5 3.5 -12t2.5 -11q0 -2 -1 -2.5t-1 -2.5q-2 -9 -1 -20.5t-1 -19.5q0 -1 -1 -2t-1 -2q-1 -2 -0.5 -4t0.5 -4q-3 -17 -10 -30q-1 -2 -2.5 -2.5t-1.5 -2.5q-1 -2 -0.5 -3t0.5 -3
q-2 -7 -6 -10.5t-6 -10.5q-1 -3 -5.5 -6t-6.5 -8q-5 -9 -12 -16.5t-15 -13.5q-5 -2 -7.5 -6t-7.5 -7l-7 -2q-13 -8 -27 -13t-30 -11q-2 -1 -6 -1t-9 -1q-1 0 -1.5 -1t-2.5 -1q-12 -2 -24 -0.5t-25 -1.5q-2 0 -2.5 -1t-2.5 -1q-2 -1 -3.5 0t-4.5 2q-8 2 -16 1t-16 1
q-1 0 -1.5 1t-1.5 1q-3 1 -6.5 0t-6.5 0q-8 2 -15.5 6t-14.5 6q-19 7 -35 18.5t-25 25.5q-1 1 -1 3l-6 5q-2 3 -4 7.5t-4 8.5q-2 3 -2.5 3.5t-1.5 4.5t-4 7.5t-4 6.5v5q-2 7 -5 12.5t-5 13.5q0 2 0.5 4t-0.5 4q0 2 -1.5 4.5t-2.5 5.5q-2 8 -2 16t-2 19q-2 14 -0.5 26
t12.5 15q5 1 10 0t10 0q14 2 22 4q5 1 10 -0.5t10 0.5q2 0 2 1t2 1q3 1 5 0t5 -2q7 -2 12.5 -1.5t9.5 -3.5q5 -5 4 -12t1 -15q0 -3 1.5 -5.5t1.5 -4.5q2 -5 2 -10t2 -10q7 -17 19.5 -29t28.5 -18l7 -3.5t6 -2.5l12 -2q5 -1 13 0.5t13 3.5q20 7 39.5 21.5t23.5 35.5
q3 14 0 26t-8 20q-5 9 -14.5 16.5t-18.5 14.5q-2 1 -2.5 2.5t-2.5 2.5l-16 10t-16 11q-16 11 -35 22t-33 21q-2 2 -2.5 3.5t-2.5 2.5l-11 6q-5 3 -10 8t-10 8q-3 2 -6.5 6.5t-7.5 7.5q-5 6 -10 11t-10 11q-2 3 -3 6.5t-3 6.5q-2 4 -5 7.5t-5 5.5q-3 7 -5 14.5t-5 14.5
q-1 3 -2 5.5t-2 4.5l-6 26q-1 6 -0.5 11t-1.5 12q0 2 -1 2.5t-1 2.5q-1 5 -0.5 12t0.5 14q0 8 -1 14.5t1 11.5q0 1 1 1t1 2q2 8 1 16t1 16t4 24q1 6 2.5 10.5t3.5 11.5q2 6 5 12.5t5 11.5q14 29 39.5 52.5t58.5 34.5q3 2 6 3.5t7 2.5l34 6q3 1 7 1t6 1z" />
    <glyph glyph-name="T" unicode="T" horiz-adv-x="522" 
d="M238 754q1 0 5 -2q11 -2 18.5 -1.5t12.5 -4.5q2 -2 3 -5t3 -5q3 -2 13 -1t15 1h28q15 0 30 1t26 -1q2 0 6 -2q14 -3 29.5 -1t25.5 -3q3 -2 4 -7.5t1 -12.5t-0.5 -14.5t-0.5 -13.5q0 -12 1 -23t-1 -20q0 -2 -1 -7.5t-3 -6.5t-4.5 -0.5t-4.5 -0.5q-14 -2 -32 -2h-37h-37.5
t-31.5 2q-5 1 -14.5 0.5t-11.5 -2.5q-2 -1 -4.5 -6.5t-2.5 -8.5t2 -5.5t2 -4.5q2 -8 1 -17.5t-1 -19.5q0 -9 1 -18.5t-1 -16.5q0 -2 -1 -3t-1 -3q-1 -5 0 -9.5t0 -9.5q-2 -12 -3 -24t1 -22q1 -4 1 -5t-1 -6q-1 -6 0 -15t0 -15q-1 -7 0 -14q2 -6 1 -14.5t-3 -15.5
q-1 -4 0 -8.5t0 -8.5q0 -2 -1 -2.5t-1 -2.5q-2 -13 -1 -29.5t-1 -30.5q0 -2 0.5 -5t-0.5 -5q-1 -5 -1 -9t1 -12q1 -5 1 -5.5t-1 -5.5t0 -10t0 -10q0 -1 -2 -5q-1 -5 0 -10t0 -10q0 -2 -1 -3t-1 -3q-2 -11 0 -22q1 -4 0 -10q-1 -5 0 -10.5t0 -10.5t-1.5 -14.5t1.5 -16.5
t-0.5 -13t-1.5 -12q0 -2 1 -2.5t1 -2.5q1 -5 0 -11t0 -11t1 -5.5t-1 -5.5t0 -10.5t0 -9.5q0 -2 -1 -3t-1 -3q-1 -3 0 -7t0 -6q-3 -12 -17.5 -10t-29.5 0q-8 -2 -25 -3t-27 1q-4 1 -6.5 5.5t-4 11.5t-1.5 14t1 13q2 10 2 25.5v29.5q0 13 1 26.5t-1 24.5t-2 23.5t2 23.5
t1 23.5t-1 23.5v32.5t2 30.5q1 10 0 21q-1 4 0 9.5t0 10.5q0 1 -1 2.5t-1 2.5q0 2 1.5 7t2.5 9q0 3 -0.5 6t0.5 5q0 2 1 3t1 3q2 5 0.5 9t-2.5 8q-2 8 -2 21t2 21q1 5 2 9.5t2 11.5q3 19 0.5 36.5t-0.5 34.5q2 7 0.5 13t-0.5 11q1 7 2 23t0 24l-3 9t-4 7q-2 2 -10.5 1
t-13.5 -1h-26q-16 0 -30 0.5t-25 -1.5q-4 -1 -8 -0.5t-7 0.5l-6 -3q-4 -1 -14 3q-6 1 -9.5 0t-5.5 4q-6 11 -3 29t0 35q-2 9 -3 18t4 17q2 5 10.5 6t15.5 2q16 3 34.5 0t35.5 0q4 2 5 2q6 1 14.5 0.5t16.5 -1t15 0t12 3.5q6 3 8 8t8 7q13 3 24.5 1.5t24.5 0.5q4 1 8.5 1
t6.5 1z" />
    <glyph glyph-name="U" unicode="U" horiz-adv-x="465" 
d="M276 737q8 2 19 1t20 -3q11 -2 21 0t18 0q1 0 5 -2q6 -1 12 -0.5t8 -4.5q1 -2 2.5 -8t1.5 -8t-1 -3t-1 -3t0.5 -3.5l1.5 -4.5q2 -11 0 -22.5t0 -21.5q0 -2 1 -2.5t1 -2.5q1 -3 0.5 -6t-0.5 -5q1 -2 2 -5.5t0 -8.5q0 -1 -1 -2t-1 -2q0 -2 1.5 -5l2.5 -5q1 -5 0 -11t0 -11
q0 -1 1 -1.5t1 -2.5q2 -5 0.5 -10t-0.5 -10q0 -1 1 -1.5t1 -1.5q0 -3 -1 -4.5t-1 -3.5t2 -4q1 -3 0 -6t0 -6l2 -4q1 -5 -0.5 -11.5t0.5 -11.5q0 -2 1 -3t1 -3q1 -3 0 -7t0 -8q0 -1 1 -2t1 -2q1 -5 0 -10t0 -10q0 -2 1.5 -5.5t0.5 -7.5q0 -1 -1 -2t-1 -3q0 -4 2.5 -9t1.5 -12
q-1 -8 0 -14t0 -12.5t0 -11.5q0 -1 2 -3q1 -5 0.5 -12.5t-0.5 -14.5v-26q0 -14 1 -27.5t-1 -24.5q-2 -2 -2 -3q-2 -7 0 -13.5t0 -12.5l-2 -4q-2 -10 -2 -19.5t-2 -19.5q0 -2 -1 -2.5t-1 -2.5q-1 -2 -0.5 -4.5t0.5 -5.5q-2 -2 -2 -4q-1 -2 -0.5 -4.5t0.5 -4.5q-2 -11 -5 -20
t-5 -20q-1 -6 -3.5 -12t-4.5 -11t-4.5 -10t-5.5 -12q-1 -3 -3 -5.5t-4 -5.5q-5 -7 -8 -14t-7 -13q-3 -4 -7 -7t-6 -7q-10 -16 -24 -25.5t-31 -20.5l-8 -4q-4 -2 -7 -2t-7 -2q-3 -1 -5.5 -3t-4.5 -3q-3 -1 -6.5 0t-5.5 0q-2 0 -2.5 -1t-2.5 -1q-6 -2 -12.5 -1.5t-12.5 -0.5
q-22 -4 -42 0q-4 1 -7 0t-7 0l-6 2t-7 2q-5 1 -8.5 0.5t-8.5 1.5q-17 6 -34 18t-27 26q-2 2 -3 4.5t-3 4.5l-4 5q-3 3 -5 7.5t-4 8.5l-4 5q-1 2 -1 4t-1 5l-8 22l-4 11q-2 8 -5 16t-5 18q-1 7 -0.5 13t-0.5 12l-3 5q-2 8 -1 14.5t-1 18.5q-2 15 -2.5 33.5t-0.5 38.5
q0 11 -1 23t1 20q0 2 0.5 2.5t0.5 1.5q2 12 0 23t0 22q2 4 2 5q2 5 0.5 10.5t-0.5 10.5l2 4q2 11 0 23.5t0 21.5l3 6q2 11 1.5 24.5t1.5 24.5q2 5 0.5 9.5t-0.5 9.5q2 4 2 5q2 11 1 23.5t1 23.5q0 1 1 2t1 2q2 5 0.5 9.5t-0.5 9.5q0 2 1 2.5t1 2.5q2 10 1 21.5t1 23.5
q1 4 2 6.5t2 5.5q1 4 0 7t0 7q0 1 1 1.5t1 2.5q2 11 1 19t8 13q4 2 14.5 3t18.5 -1q6 -1 11.5 -0.5t10.5 -1.5q2 0 4 -2q10 -2 25 -0.5t23 -3.5q4 -2 3.5 -5t0.5 -8q1 -4 1 -4.5t-1 -4.5q-2 -5 -0.5 -10.5t0.5 -11.5q-2 -8 -2 -15t-2 -12t-0.5 -11t0.5 -11q0 -2 -2 -4
q-1 -4 0 -8.5t0 -9.5l-2 -4q-2 -11 -1 -23t-1 -22q0 -1 -1 -2t-1 -3q-1 -5 0 -10.5t0 -11.5q-2 -11 -1 -24t-1 -25q0 -2 -2 -4q-1 -5 0.5 -9.5t-0.5 -9.5q0 -1 -2 -5q-1 -5 0.5 -11t-0.5 -12q0 -2 -2 -4q-1 -5 0.5 -9t-0.5 -9q0 -3 -1.5 -10.5t0.5 -12.5q0 -4 0.5 -4.5
t-0.5 -4.5t0 -9t0 -9q-3 -3 -3 -4q-2 -10 0 -19q1 -4 0 -9t-1 -14t1 -14q0 -2 3 -5q1 -5 -0.5 -8.5t-2.5 -8.5q-2 -7 1 -13t3 -11q1 -2 0 -3.5t-1 -3.5v-1q0 -1 0.5 -1.5t0.5 -1.5q1 -2 0.5 -5.5t-0.5 -5.5q2 -8 3 -17t3 -18q1 -5 2.5 -10.5t3.5 -10.5q4 -11 10.5 -21.5
t15.5 -16.5q2 -2 3.5 -4t3.5 -3q4 -2 13.5 -1.5t14.5 1.5q4 1 13 6t14 8q3 2 5.5 5t5.5 6q7 8 11.5 14t7.5 18q1 2 3 4.5t3 4.5q2 7 5 14.5t5 14.5v6l4 16l4 16q2 10 1 21t1 22q0 1 1 1.5t1 2.5q1 3 0 6t0 6q0 2 1.5 6t0.5 8q-1 5 0 10t0.5 12t-0.5 15q0 7 0.5 14t-0.5 12
q-1 2 -1 5t-1 8q-1 4 -1 4.5t1 4.5q1 5 0 10.5t-2 8.5q-2 11 -1 22.5t-1 22.5q0 2 -1 3t-1 3q-2 5 -0.5 10.5t0.5 10.5q-2 2 -2 4q-2 7 0 15.5t0 17.5l-4 20q-2 8 0 16.5t0 16.5q0 2 -1 2.5t-1 2.5q-1 3 0 7.5t0 9.5t-2.5 9t-1.5 6q0 3 2 6t0 9l-4 14q-2 7 0 14t0 14
q-3 12 0 28q1 7 1 13.5t0.5 11.5t2.5 8t9 5z" />
    <glyph glyph-name="V" unicode="V" horiz-adv-x="445" 
d="M285 746q14 5 25.5 -0.5t21.5 -7.5h6l10 -4q2 0 4 0.5t4 -0.5q7 -1 12 -3.5t11 -4.5q2 0 3.5 0.5t3.5 -0.5q7 -2 9 -6t1 -9.5t-3 -12t-3 -12.5q-1 -2 -0.5 -4t0.5 -4q-2 -5 -2 -11t-2 -13q-1 -4 -3 -7.5t-3 -8.5q-1 -2 -0.5 -5t0.5 -5l-4 -11q-1 -3 0 -6t0 -6t-2 -5.5
t-2 -4.5q0 -2 0.5 -3.5t-0.5 -3.5q-1 -4 -2 -7l-2 -6q-1 -5 -0.5 -9.5t-1.5 -10.5q0 -1 -1 -1.5t-1 -1.5q-2 -8 -2 -17t-2 -17q0 -2 -1 -2.5t-1 -1.5l-2 -20q0 -2 -2 -4q-1 -2 0 -5t0 -5q-1 -5 -3 -8.5t-3 -7.5q0 -2 0.5 -3.5t-0.5 -3.5q0 -2 -1 -2.5t-1 -2.5q-1 -3 0 -6.5
t0 -7.5q-1 -5 -2.5 -10t-3.5 -10q-1 -5 -0.5 -11t-1.5 -13q-1 -5 -3 -8.5t-3 -8.5q0 -3 0.5 -6t-0.5 -6q-2 -10 -5 -19t-5 -19q0 -2 0.5 -4t-0.5 -4q-2 -10 -4.5 -19t-4.5 -18q-1 -2 -0.5 -4t0.5 -4q-1 -2 -1.5 -3.5t-1.5 -5.5q-1 -5 -3 -11l-4 -12q-2 -5 -3 -8.5t-1 -7.5
q-1 -2 0 -4.5t0 -4.5t-2 -1t-2 -1q-1 -1 -0.5 -5t0.5 -6l-4 -13q-2 -9 -7 -18.5t-7 -18.5q-2 -10 -4 -18t-6 -18q-1 -2 -3 -4.5t-3 -5.5q-2 -6 -4 -13t-4 -12t-4 -11t-4 -10q-6 -10 -10 -19t-10 -20q-3 -8 -9 -16.5t-14 -10.5q-6 -2 -13.5 0t-14.5 0q-2 0 -3 -1t-3 -1
t-2.5 1t-2.5 1q-8 2 -19.5 2t-19.5 -2q-5 -1 -6.5 -1t-5.5 1q-8 2 -11 2t-6 7q0 2 -1 2t-2 2l-6 12q-2 5 -3 8t-3 7q-2 3 -3.5 5.5t-2.5 4.5q-2 5 -3 11t-3 11t-4.5 9.5t-3.5 9.5l-2 12q-3 12 -7.5 23t-6.5 22v7q-1 5 -3 10.5t-3 9.5v6q-1 4 -3 8t-3 9q0 2 0.5 5t-0.5 5
l-2 4q-1 5 -0.5 11t-1.5 11q0 3 -1.5 6t-2.5 8t-0.5 11t-1.5 11q0 2 -2 12q-1 6 -1.5 12.5t-2.5 14.5q0 4 -1.5 7t-2.5 7q-1 5 0 10t0 10l-2 4q-2 6 0 12t0 12q0 1 -2 3q-1 5 0.5 9.5t-0.5 9.5q0 1 -2 3q-2 14 -0.5 30t-0.5 30l-3 5q-1 5 0 10t0 10q0 1 -2 3q-2 6 -1 18
t-1 19q-1 6 -0.5 13t0.5 15v27q0 15 0.5 31t-2.5 27q0 3 1 6.5t-1 7.5q0 2 -1.5 8t0.5 10l3 18q2 8 0 16q-2 10 -1 19t11 11q7 2 15.5 1t16.5 1q3 1 10.5 2.5t13.5 0.5l4 -3q5 -1 13 -1t12 1q3 1 5.5 1.5t7.5 -1.5q5 -1 8 -4.5t4 -8.5q1 -4 0 -7.5t-2 -7.5q-1 -5 -1 -12v-13
q0 -2 1.5 -5t1.5 -5q1 -4 -0.5 -5.5t-1.5 -3.5q0 -1 1 -1.5t1 -1.5q1 -3 0 -9.5t0 -11.5t0 -9q-1 -5 -0.5 -11.5t0.5 -12.5t-0.5 -12t0.5 -11q1 -3 2.5 -6l2.5 -5q0 -3 -2.5 -7.5t-2.5 -7.5q0 -2 1 -3t1 -3q2 -8 0 -18.5t0 -19.5q0 -1 3 -4q1 -5 -0.5 -11t0.5 -11
q2 -13 2.5 -26.5t2.5 -24.5q2 -5 0 -8.5t-2 -5.5q0 -4 3 -8.5t1 -11.5l-1 -4l1 -3q1 -4 0 -8.5t0 -7.5q0 -2 1 -2t1 -2q1 -4 0 -7.5t0 -6.5t2.5 -5.5t1.5 -4.5q1 -3 0 -5t-2 -5q0 -1 1 -1.5t1 -2.5q1 -2 0.5 -5t-0.5 -5q1 -3 2.5 -5.5t1.5 -4.5q1 -4 0 -9.5t0 -10.5
t1.5 -11.5t2.5 -11.5q1 -5 3 -10.5t3 -12.5q1 -2 0.5 -3.5t-0.5 -3.5q1 -4 4 -11.5t2 -7.5l7 7l8 21q3 8 6 17.5t6 17.5l4 15l2 14q1 5 2.5 9t3.5 9l2 12l4 9q0 2 -0.5 4t0.5 4q1 8 3.5 14t4.5 14t1.5 16t1.5 17q2 5 3.5 9.5t3.5 9.5q1 5 0.5 10.5t1.5 10.5q0 3 1.5 6t1.5 6
q2 5 1.5 11t0.5 11q2 11 5 21t5 21q2 8 2 16t2 16q0 2 1 2.5t1 2.5q2 6 2 12t2 12l4 14q1 2 0 5t0 5q1 5 3 10t3 10l2 18q2 8 4 16.5t4 18.5q1 5 3 9t3 9q2 10 3.5 21.5t9.5 14.5z" />
    <glyph glyph-name="W" unicode="W" horiz-adv-x="667" 
d="M433 353l3.5 7t2.5 8q2 11 1 21t1 21q1 3 2.5 6t2.5 6q2 8 0.5 16.5t0.5 16.5l4 16q2 7 0.5 14.5t-0.5 15.5l4 11q1 3 0 6t0 6q0 2 1 2.5t1 2.5q2 7 1.5 14.5t0.5 15.5q2 2 2 3q1 4 0 8t0 8q2 2 2 4q2 6 1.5 12t0.5 12l4 14q2 4 0.5 8.5t-0.5 9.5l4 14t4 13q1 5 0.5 8.5
t1.5 9.5q0 2 1 2.5t1 1.5q1 2 0.5 4t-0.5 5q2 8 6 18.5t9 12.5q6 3 9.5 1.5t11.5 -3.5q2 0 4 0.5t4 -0.5q2 0 2.5 -1t1.5 -1q2 -1 5 0t5 0q11 -2 22 -4.5t22 -4.5q5 -2 9 -1.5t9 -1.5q4 -1 8 -5t4 -8q0 1 -2 -5q0 -2 0.5 -4t-0.5 -4q0 -1 -1 -1.5t-1 -2.5q-2 -5 -1.5 -10
t-0.5 -10q-5 -17 -8 -37q0 -3 0.5 -5.5t-0.5 -4.5q0 -2 -1 -2t-1 -2q-2 -6 -1 -13.5t-1 -14.5q-2 -10 -4 -23t-4 -24q0 -2 -1 -2.5t-1 -2.5q-2 -10 -1 -21t-1 -21q0 -2 -1.5 -3.5t-2.5 -3.5q-1 -3 0 -6.5t0 -7.5q-2 -6 -2 -16t-2 -18q0 -2 -1.5 -7t-1.5 -8v-10.5t-1 -10.5
q0 -2 -1.5 -7t-2.5 -8q0 -2 0.5 -4t-0.5 -4q0 -2 -1 -2.5t-1 -1.5q0 -2 1.5 -3.5t0.5 -3.5q0 -1 -2 -5q0 -2 0.5 -5t-0.5 -5q-1 -4 -3 -9.5t-2 -11.5q0 -2 0.5 -3t0.5 -3t-0.5 -2.5t-1.5 -2.5q0 -2 0.5 -4t-0.5 -4q-1 -4 -2 -7.5t-2 -5.5q0 -3 1.5 -4.5t0.5 -4.5
q0 -2 -1.5 -3.5t-1.5 -3.5q-2 -5 -1.5 -11t-0.5 -12l-3 -5q-2 -8 -1 -15t-1 -15l-7 -35q-1 -2 -0.5 -4t0.5 -4l-3 -4q-1 -5 -0.5 -10t-1.5 -10q-2 -11 -5 -22t-5 -22q-1 -5 -0.5 -10t-0.5 -10q-3 -13 -8.5 -28t-7.5 -29q-2 -6 -2 -11t-2 -10q-2 -2 -5 -5.5t-4 -3.5
q-5 -2 -12 0t-13 0q-1 0 -1.5 -1t-1.5 -1q-5 -1 -9.5 0t-9.5 0q-1 0 -1.5 -1t-2.5 -1q-7 -2 -15.5 -1t-18.5 1q-14 0 -26.5 -0.5t-15.5 10.5l-2 14q-2 9 -5 17.5t-5 18.5q0 2 0.5 4t-0.5 4q-1 4 -3 7t-3 8q0 2 0.5 4t-0.5 4q0 2 -1 2.5t-1 2.5q-2 7 -2 13.5t-2 13.5
q-2 12 -6 24t-6 23q0 2 0.5 4.5t-0.5 4.5q-2 10 -4 21.5t-4 22.5q-1 6 -2.5 11.5t-2.5 11.5q-1 2 -0.5 4t0.5 4q-2 4 -2.5 10t-1.5 11l-3 5q0 2 0.5 3.5t-0.5 3.5l-3 22q-2 7 -4.5 13t-3.5 13q-1 3 -0.5 5.5t0.5 4.5q-1 3 -2.5 4.5t-1.5 3.5q-1 2 -0.5 5.5t0.5 6.5l-3 9
t-4 6t-4.5 -5.5t-3.5 -7.5q-3 -11 -4.5 -14.5t-3.5 -13.5q-5 -17 -11.5 -34t-10.5 -36q-2 -6 -5 -12.5t-5 -13.5q0 -4 -2 -8q-2 -7 -3.5 -14t-4.5 -13q-1 -4 -3.5 -8t-4.5 -9t-3 -10.5t-3 -10.5q-3 -8 -7.5 -16t-6.5 -17q-2 -12 -8.5 -21t-8.5 -20q-2 -5 -2 -10.5t-3 -7.5
q-6 -6 -16 -4.5t-21 -0.5q-1 0 -1.5 -1t-2.5 -1q-7 -2 -16.5 0t-17.5 0q-5 -1 -21 -2.5t-24 0.5q-5 2 -7.5 8.5t-3.5 13.5q-2 7 -4 14.5t-4 13.5q-1 6 -0.5 12t-1.5 13q0 2 -1 2.5t-1 2.5q-3 12 -4 26t-4 25q-1 5 -0.5 11t-1.5 11q0 1 -1 2t-1 3q-1 3 0 6t0 7q0 1 -1 1.5
t-1 2.5q-2 8 -1 16t-1 16q0 1 -2 3q-2 9 -1 19.5t-1 18.5t-1 17t-1 17q0 1 -1 2t-1 2q-1 5 0 11t0 11q0 2 -0.5 2t-1.5 2q-2 8 0 17.5t0 17.5q0 2 -2 4q-1 4 0 8t0 8q0 2 -1.5 7.5t-2.5 8.5q-2 11 1 25t-1 28q0 2 -0.5 2.5t-0.5 1.5q-2 11 0 21.5t0 20.5l-3 5q-2 9 -1 23.5
t-1 22.5q-1 5 0.5 12t-0.5 15t-1 23t-1 24q-1 5 -1.5 12.5t-0.5 15.5t1.5 14t5.5 8q8 5 17.5 2.5t19.5 -0.5q2 1 6.5 2t9.5 0q4 -1 6.5 -2t7.5 0q2 2 4 2q5 2 11 1.5t10 0.5q6 2 14.5 -1t10.5 -5q1 -1 1.5 -4t1.5 -4q1 -7 -0.5 -14.5t0.5 -15.5q0 -1 0.5 -1.5t0.5 -1.5
q2 -5 0.5 -10t-0.5 -10q3 -17 1.5 -34t0.5 -33q2 -6 1.5 -11.5t0.5 -10.5q1 -4 2.5 -7t1.5 -7q0 -2 -2 -5t-2 -5q0 -1 1 -1.5t1 -2.5q1 -4 0 -9t0 -8q1 -5 0 -10q-1 -4 0 -8t2 -9t0 -10t0 -10q0 -1 1 -1.5t1 -2.5q2 -4 0.5 -9t-0.5 -10l2 -4q1 -4 0 -8.5t0 -7.5q1 -4 1 -4.5
t-1 -3.5q-1 -5 0 -11t2 -9q2 -5 0.5 -9.5t-0.5 -8.5q1 -2 2.5 -12t3.5 -11l4 4q1 2 3 4q1 1 0.5 2.5t-0.5 2.5q1 6 3.5 11.5t4.5 12.5q2 9 6 17.5t6 17.5l2 13q2 9 6 18t6 19q2 11 5 20t5 20q2 7 4 13t3 14q1 2 0.5 3t-0.5 3q2 8 5.5 15t4.5 15q2 5 1.5 8t0.5 8l7 20
q1 8 1 13.5t2 13.5q2 5 3.5 9.5t3.5 8.5q2 11 2.5 19.5t10.5 10.5q2 1 5 0.5t5 -0.5l4 1l3 -1q4 -1 11 -1t12 1q7 2 20.5 2t21.5 -2q10 -2 18 -1t13 -4q2 -2 4 -7.5t3 -10.5q1 -3 0.5 -5.5t-0.5 -4.5q2 -7 4.5 -13.5t3.5 -11.5q1 -2 0.5 -4.5t-0.5 -4.5q1 -5 3 -10t3 -10v-8
q2 -14 6.5 -27.5t7.5 -27.5q1 -5 0.5 -9t1.5 -9q0 -1 1 -2t1 -3v-6q1 -2 1 -5.5t1 -7.5q1 -5 3 -10t3 -9q1 -5 0.5 -11t1.5 -11q1 -5 2.5 -10.5t3.5 -10.5q0 -2 -0.5 -4.5t0.5 -4.5l5 -30l3 -4q2 -7 2 -14t2 -13q0 -3 1.5 -6t1.5 -5q1 -5 0.5 -10t4.5 -9z" />
    <glyph glyph-name="X" unicode="X" horiz-adv-x="515" 
d="M378 754q5 2 11.5 1t11.5 -3q6 -2 12.5 -6.5t14.5 -6.5l17 -9q7 -2 12.5 -5t11.5 -5q8 -3 14 -6.5t3 -17.5q-1 -4 -3.5 -7.5t-4.5 -7.5q-5 -12 -10 -24.5t-10 -25.5l-9 -23q-3 -7 -6.5 -13t-5.5 -13l-4 -10l-4 -10q-8 -20 -17 -40t-17 -40q-3 -8 -7.5 -14t-6.5 -13
l-8 -22q-2 -6 -5 -10.5t-5 -12.5q-1 -4 -3.5 -7t-4.5 -7q-4 -11 -8.5 -19.5t-7.5 -19.5q-2 -11 -9 -18.5t-5 -20.5q2 -8 6 -16.5t6 -16.5q2 -5 2.5 -9t2.5 -8q3 -14 8.5 -27.5t10.5 -26.5v-3q2 -5 3.5 -8.5t2.5 -9.5l4 -12q3 -8 6.5 -15t5.5 -15q3 -8 7 -16t7 -16
q2 -6 4 -13t4 -12q5 -15 -5 -22q-2 -2 -6 -3.5t-8 -3.5l-23 -11l-14 -7t-12 -5t-12 -6.5t-11 -5.5q-5 -2 -14 -1t-11 4l-4 8l-10 27q-2 6 -6 11.5t-6 13.5t-5.5 15t-6.5 15q-2 8 -4 12q-2 5 -5 10.5t-5 10.5l-13 41q-1 3 -3 6q-1 1 -1.5 2.5t-1.5 2.5t-1 2q-1 0 -2 -0.5
t-3 -5.5q-6 -14 -13.5 -27.5t-13.5 -26.5q-9 -19 -19.5 -37.5t-20.5 -38.5l-12 -23l-4 -12q-1 -2 -3.5 -5t-4.5 -5q-1 -2 -0.5 -4.5t-1.5 -4.5q-4 -5 -8.5 -11t-15.5 -3q-2 0 -4 1.5t-4 2.5q-4 3 -9 6.5t-10 5.5h-4q-8 3 -17.5 10t-20.5 12q-8 3 -17.5 7.5t-6.5 18.5
q1 8 7 16t8 17q1 3 2 7t3 6q2 4 5.5 8t5.5 9q3 8 6.5 15t8.5 14l4.5 9t4.5 11q2 8 7 13.5t7 10.5q3 11 8 17.5t8 17.5q1 5 4.5 10.5t5.5 9.5l13 26q5 10 9 18.5t9 14.5q2 5 4 13q4 10 11 19t9 19q1 5 0 9.5t-2 6.5q-7 20 -13.5 40.5t-14.5 40.5q-2 5 -5 11t-5 12
q-3 11 -6 21.5t-7 21.5q-9 23 -18.5 47t-17.5 48q-2 3 -3 8t-3 10q-2 7 -6 13.5t-6 14.5q0 1 0.5 2t-0.5 3q-2 9 -5 20t9 17q2 1 4.5 1t4.5 1q7 2 12.5 4t12.5 4q7 1 13.5 4t13.5 5q5 2 9.5 2.5t9.5 1.5q2 1 3.5 2.5t3.5 1.5q13 4 21 0q5 -2 8.5 -9.5t5.5 -13.5l10 -31
q3 -10 7.5 -22t8.5 -21l2 -10q2 -8 6 -14t6 -14q0 -2 -0.5 -3t0.5 -3q1 -4 2.5 -6.5t3.5 -6.5l3 -15q5 -14 10.5 -27.5t9.5 -25.5l4 -12q2 -4 2.5 -5.5t1.5 -6.5q1 -2 2.5 -4t1.5 -3q1 -1 0 -1.5t0 -1.5t3.5 1t3.5 2q0 1 1.5 3.5t2.5 4.5q6 17 14 32.5t14 32.5q2 5 4 8.5
t4 8.5q5 13 11 24t9 25q1 3 3.5 6.5t3.5 7.5v4q4 9 8.5 17t8.5 17q4 11 8 20t7 20q2 5 5.5 9.5t4.5 9.5q4 10 10 13z" />
    <glyph glyph-name="Y" unicode="Y" horiz-adv-x="588" 
d="M460 744q5 1 9 -1.5t8 -4.5q5 -3 10.5 -6t10.5 -7t11 -9t11 -9q2 -2 4.5 -5.5t5.5 -5.5q8 -5 15.5 -13t-0.5 -20l-14 -20q-3 -5 -8 -9t-9 -9l-28 -41q-4 -5 -9.5 -10.5t-9.5 -11.5q-7 -10 -14 -19t-13 -19q-2 -2 -3.5 -3t-3.5 -3l-17 -25q-4 -6 -9 -11t-10 -12l-11 -17
l-4 -4l-4 -4q-4 -5 -6.5 -10.5t-6.5 -10.5q-1 -2 -2.5 -2.5t-2.5 -2.5l-15 -23q-2 -2 -4 -3.5t-3 -3.5q-4 -6 -8 -11.5t-9 -11.5q-2 -4 -5.5 -7.5t-6.5 -8.5l-17 -22q-5 -8 -8.5 -15.5t-5.5 -15.5q-2 -12 -1 -27t1 -28v-110q0 -26 -1 -45.5t-1 -45.5q0 -9 0.5 -18t-0.5 -16
q-1 -2 -2 -5.5t-3 -4.5q-5 -2 -14 -1t-14 1h-55q-8 0 -19 -0.5t-13 5.5q0 2 0.5 3.5t-0.5 3.5q-1 4 -1 4.5t1 3.5q2 5 0.5 11t-0.5 11q2 8 2 9.5t-2 9.5q0 2 -1 2.5t-1 2.5q0 3 1.5 6l2.5 5q3 16 -1.5 31.5t-0.5 32.5q0 1 1 2t1 2q1 4 -0.5 10t0.5 12q2 7 2 18.5v23.5
q0 10 1 20.5t-1 18.5q-2 14 -1 26t-1 23q-2 12 -1 25.5t-1 24.5q0 2 -2 12q-1 7 -6.5 13t-7.5 14q-5 18 -13.5 32t-16.5 31q-2 4 -4 7.5t-3 6.5q-1 2 -1 4.5t-2 4.5q-1 3 -2.5 5t-2.5 7q-2 5 -5.5 10t-6.5 10q-2 3 -4 7.5t-4 9.5l-8 19q-3 8 -7.5 14t-6.5 12q-2 5 -4 8.5
t-4 7.5q-5 8 -8 16.5t-8 16.5l-13 22q-2 3 -3.5 7t-3.5 8q-5 6 -7.5 16t6.5 16q2 2 5.5 3.5t7.5 3.5q4 3 5 3.5t6 2.5q5 1 13.5 6t14.5 8l10 3q11 5 24 9.5t21 -7.5q3 -5 4.5 -9.5t4.5 -9.5l7 -9q6 -9 10 -20.5t10 -21.5q11 -16 19.5 -33t17.5 -36q3 -5 5 -10.5t4 -11.5
q3 -8 8.5 -17.5t10.5 -20.5l10 -19l4 -10t5 -9t6.5 -2.5t7.5 6t7.5 10.5t5.5 9l8 10q11 14 23 28.5t22 28.5l3.5 3.5l3.5 3.5l15 23q5 6 10.5 12t10.5 13q9 12 19 24.5t19 25.5q2 2 4 3.5t3 3.5q4 5 7 9.5t6 9.5q3 4 7 7t6 7l11 18q3 5 9 10t11 5z" />
    <glyph glyph-name="Z" unicode="Z" horiz-adv-x="505" 
d="M28 772q5 1 15 -0.5t19 -3.5q3 0 5.5 0.5t4.5 -0.5q2 0 4 -2q2 0 5 0.5t5 -0.5q1 0 2 -1t2 -1q8 -2 15.5 -1t14.5 -1q2 0 2.5 -1t1.5 -1q6 -2 12.5 -1t13.5 -1l4 -2q7 -2 14.5 -1t14.5 -1q1 0 2 -1t2 -1q7 -2 13.5 -1t13.5 -1q-1 0 3 -2q3 -1 6 0t6 0q12 -2 22 -4
q7 -1 14.5 -0.5t14.5 -0.5q3 -3 4 -3q7 -2 15 -1t15 -1q2 0 4 -2q3 0 6 0.5t6 -0.5q2 0 4 -2q5 -1 9 -1h7q8 -2 15.5 -1.5t15.5 -0.5l5 -3q7 -2 14.5 -1t15.5 -1q1 0 3 -2q6 -2 13.5 -1t12.5 0q8 -2 10 -8q3 -6 0.5 -14.5t-4.5 -16.5q-2 -7 -0.5 -16t-1.5 -14
q0 -2 -1.5 -1.5t-1.5 -0.5v-7q-1 -2 -2 -2.5t-1 -1.5q0 -2 0.5 -4t-0.5 -4q-1 -5 -1.5 -10t-2.5 -10q-2 -9 -7 -7.5t-13 -0.5q-5 -2 -10 -10.5t-7 -14.5l-2 -10q-2 -2 -3.5 -4t-2.5 -5v-5q-2 -6 -6 -11.5t-6 -12.5v-3l-6 -16q-4 -11 -8.5 -22.5t-9.5 -22.5q-1 -2 -2 -3.5
t-2 -3.5q-3 -8 -5 -17t-5 -17l-3 -9l-8 -18t-6 -18l-6 -20q-5 -12 -9.5 -24.5t-9.5 -24.5l-9 -28q-2 -5 -5 -11t-5 -11l-2 -10q-2 -4 -4 -7t-4 -7t-2 -8t-2 -7t-3.5 -4.5t-2.5 -4.5q-1 -5 -2 -9t-4 -9q-5 -7 -8.5 -16t-8.5 -17q-2 -3 -4 -7t-4 -9q-2 -4 -5 -8.5t-4 -7.5
q-1 -6 3 -8.5t10 -3.5t13.5 -0.5t13.5 0.5h58q7 0 15 1t14 -1q2 -1 2 -1.5t2 -0.5q4 -1 10.5 0t11.5 0q1 0 1.5 -1t2.5 -1q9 -2 18 -1.5t16.5 -1.5t11.5 -7t2 -17q-1 -2 -2.5 -4t-1.5 -4q0 -3 1 -9t-1 -12q-2 -2 -2 -4q-1 -3 0 -6t0 -6q0 -1 -3 -4q-1 -5 -0.5 -10t-0.5 -10
q-2 -2 -2 -3q-2 -4 -1.5 -9t-0.5 -8q-1 -2 -1.5 -1t-2.5 -1q-1 -1 -0.5 -2t-0.5 -1q-3 -3 -10.5 -3.5t-11.5 0.5q-1 0 -1.5 1t-2.5 1q-11 3 -26 1t-27 1q-14 3 -37.5 2.5t-40.5 -0.5h-38q-9 0 -19.5 1t-16.5 -1q-2 0 -2 -1t-2 -1q-11 -2 -26 0.5t-29 -0.5q-5 -1 -20 -2.5
t-22 0.5q-4 1 -6 6.5t-2.5 12t-1 14t-1.5 12.5q0 2 -1 2.5t-1 2.5q-2 5 -0.5 12.5t0.5 12.5q-2 7 -2 19t2 20q1 3 3.5 7.5t4.5 9.5q5 11 10 19t10 19l18 36q2 5 4.5 8.5t4.5 8.5q1 2 1 4.5t1 4.5q2 3 3.5 5.5t2.5 5.5q2 8 8.5 17.5t9.5 17.5l2 10q2 4 4 7t4 7l2 9
q4 11 9 21.5t9 21.5q1 2 3 4.5t3 4.5q2 8 5 13.5t5 12.5q2 10 4 16l8 16q1 2 0.5 4.5t0.5 4.5q3 8 6.5 13.5t5.5 13.5q1 2 0.5 2.5t-0.5 1.5q3 12 9 22t8 22q0 4 2 7.5t3 7.5l20 61q2 5 7 16.5t5 16.5q0 6 -4 8.5t-10 4t-12.5 1.5t-11.5 1l-6 3q-5 1 -11 0.5t-12 0.5l-16 4
q-5 2 -12 1t-13 1q-2 1 -6 1t-8 1q-1 0 -1.5 1t-2.5 1q-6 2 -13.5 1.5t-13.5 0.5l-17 4q-5 2 -12.5 1.5t-13.5 0.5q-1 0 -1.5 1t-2.5 1q-2 1 -5 0t-5 0q-1 0 -2 1t-2 1q-6 2 -12.5 1.5t-13.5 0.5q-1 0 -1.5 1t-1.5 1q-5 1 -9 0t-8 0q-5 2 -9 6.5t-4 8.5q0 3 1.5 6.5t1.5 6.5
l4 20q1 3 0 6t0 6q2 5 4.5 11t3.5 13q2 11 3.5 22t12.5 14z" />
    <glyph glyph-name="bracketleft" unicode="[" horiz-adv-x="375" 
d="M60 814q5 1 11 0.5t11 -1.5t8.5 -0.5t7.5 0.5q4 -2 5 -2q8 -2 14.5 -1.5t11.5 -1.5t10 -5.5t10 -5.5q8 -2 20 -1t20 3q3 0 7 -0.5t7 0.5l6 2q4 1 8.5 0t9.5 0q1 0 5 2q4 1 9.5 -0.5t10.5 0.5q5 0 8.5 1.5t8.5 -0.5q9 -2 21.5 -3.5t15.5 -9.5q1 -4 0 -7.5t0 -7.5
q0 -2 1 -3.5t1 -3.5t-2 -6.5t-2 -8.5q-1 -5 0 -8t2 -5q1 -7 0 -15.5t-2 -13.5q-2 -8 -2 -14.5t-5 -8.5q-8 -3 -21 -1t-21 0q-7 -1 -16 0q-4 1 -7.5 0t-7.5 -2q-5 -1 -10 0.5t-10 -0.5q-1 0 -1 -1t-2 -2q-8 -3 -18.5 -1t-18.5 1q-3 -1 -7 -1t-6 -1q-8 -2 -11 -16.5t-1 -27.5
q1 -4 1 -5t-1 -6q-1 -4 0 -8t0 -8q0 -2 -1 -2.5t-1 -2.5q-2 -13 0 -29t0 -27q0 -1 -1 -2.5t-1 -2.5q0 -3 1 -4t1 -4q0 -1 -2 -7q-3 -19 -0.5 -46t0.5 -46q0 -1 -1 -2.5t-1 -2.5q0 -2 1 -3.5t1 -3.5t-2 -6q-2 -11 -1 -23.5t1 -25.5v-97q0 -27 -1 -50.5t-1 -50.5
q0 -17 0.5 -32.5t-1.5 -29.5l-3 -7q-1 -6 -0.5 -14.5t0.5 -16.5q0 -10 -1 -19t1 -17q1 -2 2.5 -7t2.5 -5q2 -2 8.5 -1t11.5 1t10.5 0.5t8.5 -0.5l6 -3q5 -1 10.5 0t10.5 0q19 -3 39 -1t37 0q4 -1 8.5 -4t5.5 -6q2 -6 1 -13.5t-1 -14.5v-18t2 -17q2 -9 -1 -23t-8 -16
q-6 -2 -16 -1.5t-18 0.5q-17 0 -36 -0.5t-39 -0.5t-41 -1t-35 1q-7 1 -18 1.5t-17 2.5q-5 1 -10.5 0t-9.5 0q-2 0 -6 2q-5 1 -11 -0.5t-11 0.5q-2 0 -5.5 4t-3.5 6q-2 7 -1 17t1 20t-1 20t1 18q0 3 1.5 8t1.5 8q0 1 -2 7q-2 9 -1 23t3 26q1 5 0 9.5t0 9.5t1.5 8.5t-1.5 8.5
q-1 7 0 12.5t2 12.5q2 9 0.5 16.5t-0.5 15.5l3 6q2 12 1 26.5t-1 27.5t-1 27t1 26q1 9 0 21q-2 6 -0.5 12t0.5 11q-1 3 -2.5 7t-0.5 9t2.5 8t1.5 7q1 3 0 5.5t-1 5.5q0 4 1.5 7t1.5 6q3 19 -2 41q-1 5 0 9.5t0 9.5q0 5 -0.5 7t0.5 7q2 7 0.5 13.5t-0.5 14.5q2 11 2 26v30
q0 12 -1 25t1 24q1 5 2 8.5t0 7.5q-1 8 0 15q3 15 0.5 30.5t-0.5 29.5q2 4 2 5q3 17 0 35.5t0 35.5q1 2 1.5 2.5t0.5 2.5q2 8 0 18t0 18q0 2 1 3t1 3q1 3 1 6t2 5q4 5 15 5.5t19 2.5z" />
    <glyph glyph-name="backslash" unicode="\" horiz-adv-x="519" 
d="M84 781q9 2 14.5 -1.5t9.5 -10t7 -14.5t7 -14q7 -11 12.5 -25t10.5 -26q2 -3 4.5 -5t3.5 -6q5 -13 11 -24t11 -25q4 -11 9.5 -21.5t10.5 -21.5q2 -5 4 -8.5t4 -9.5q1 -4 3.5 -7t4.5 -8v-3q1 -5 2.5 -6.5t2.5 -6.5q2 -5 6 -11t6 -12q3 -8 7 -16.5t7 -16.5q5 -13 12 -25.5
t12 -26.5q4 -13 10.5 -25t11.5 -25q2 -6 5 -12t5 -12v-3l3 -6t3 -8q2 -7 6.5 -14.5t7.5 -15.5l4 -10q2 -7 5.5 -13t5.5 -14q2 -6 5 -12t5 -12q2 -5 5 -10.5t5 -11.5q2 -2 3.5 -5.5t2.5 -6.5l2 -9q1 -2 3 -4t3 -6q2 -7 4 -11.5t4 -11.5q2 -4 4 -7t4 -7q2 -3 2.5 -6.5
t1.5 -6.5q6 -15 13.5 -29.5t12.5 -30.5q4 -10 8.5 -19t7.5 -20q1 -6 5 -12t6 -13q2 -6 5.5 -12.5t4.5 -11.5q3 -13 -3 -18t-16 -9l-15 -4q-5 -1 -10 -3.5t-10 -4.5q-4 -1 -7 -0.5t-7 -1.5q-8 -2 -21.5 -7t-21.5 2q-2 2 -4 8l-4 12q-2 3 -5 10.5l-5 12.5v1v1q-4 10 -8 17.5
t-6 16.5q-1 4 -3 7.5t-3 8.5q-2 5 -4 8.5t-4 8.5q-5 14 -12 28t-12 28l-10 23l-2 9q-5 13 -11.5 26.5t-11.5 26.5l-9 18q-6 17 -13.5 33t-13.5 33l-10 20q-1 2 -1 4.5t-1 4.5q-5 13 -12 24t-10 24q-1 3 -3 5.5t-3 5.5q-3 8 -6.5 15.5t-5.5 15.5q-2 7 -6.5 13t-7.5 14l-17 44
q-5 11 -10.5 20.5t-9.5 20.5q-5 11 -9.5 21t-8.5 22q-4 8 -9.5 17.5t-8.5 18.5q-7 17 -16 35.5t-16 36.5q-4 11 -9.5 19t-7.5 19q-2 5 -5 8t-4 7q-3 17 7 25q8 5 19 10.5t22 9.5l12 4q7 2 11.5 4.5t11.5 4.5z" />
    <glyph glyph-name="bracketright" unicode="]" horiz-adv-x="379" 
d="M210 818q2 0 9 0.5t11 -0.5q6 -1 9 -1t8 1q7 2 16.5 -0.5t12.5 -5.5q4 -3 2.5 -13t0.5 -18t1 -19.5t1 -22.5q3 -20 2 -41.5t2 -38.5q1 -5 0 -9.5t0 -9.5q1 -4 2 -7t0 -7q-2 -7 -3 -13t1 -14l4 -13q2 -9 0.5 -19t-2.5 -18q-1 -5 -1 -6.5t1 -6.5q2 -12 0.5 -25.5t1.5 -27.5
q2 -14 1 -29t-1 -29q0 -15 -1 -30t1 -28q0 -2 1 -3t1 -3q1 -6 0 -12.5t0 -11.5q1 -2 2.5 -5.5t1.5 -5.5q0 -3 -1.5 -6.5t-2.5 -7.5q-1 -6 -0.5 -14t0.5 -16t-0.5 -16t0.5 -14q1 -5 2 -8l2 -6q0 -3 -1 -5.5t-1 -5.5q0 -2 1 -3.5t1 -3.5q1 -9 0.5 -22t-1 -26.5t-1 -26.5
t1.5 -22q2 -10 2 -24.5v-28.5q0 -35 1 -64.5t1 -66.5q0 -6 0.5 -14t-0.5 -11q-1 -2 -6 -5t-9 -3q-4 -1 -8 -0.5t-9 0.5q-11 -2 -29.5 -2h-36.5h-49t-45 3q-8 2 -16.5 0.5t-14.5 -0.5l-6 3q-11 2 -23.5 0.5t-21.5 1.5q-6 2 -8 9q-5 11 -4 21t-1 24q-1 6 -2 15t-1 18t1.5 16
t6.5 9q2 1 9 2t9 1q1 0 5 -2q4 0 8.5 0.5t9.5 -0.5q14 -2 31 -1.5t30 -1.5q10 -2 21 0h11q8 -2 15 0t9 9q2 9 2 27t-2 28q-2 7 0 16t0 17q-1 5 -2.5 9.5t-1.5 7.5q0 2 1.5 6.5t2.5 6.5q1 7 0.5 16t-0.5 18v21.5t-2 18.5q-2 13 0 24t0 21q0 2 -1 3t-1 3q-2 8 -1 17.5t1 17.5
v72q0 9 0.5 18t-0.5 17q-5 35 -2 71.5t-2 69.5q-3 15 0 31.5t0 30.5q-2 10 -2 23.5t-2 25.5q-1 4 -3 9.5t-4 6.5q-7 4 -16 0.5t-17 -1.5q-5 1 -5.5 1t-5.5 -1q-8 -2 -19 0t-20 0q-1 0 -2 -1t-3 -2q-5 -1 -12 0.5t-13 -0.5q-3 0 -14 -1.5t-15 0.5q-5 2 -6.5 9t-3.5 14
q0 4 -1.5 6.5t-2.5 6.5q-2 14 0 26t0 22q0 2 -0.5 3t-0.5 3q0 3 1.5 7.5t3.5 6.5q5 5 19.5 6.5t23.5 3.5q4 1 8 0t8 0q5 1 10.5 1.5t12.5 0.5q2 0 4.5 -0.5t4.5 0.5q2 0 6 2q1 0 2.5 -1t2.5 -1q6 -1 12.5 0t10.5 2q4 0 8 -0.5t8 0.5q11 2 18.5 9t17.5 9q2 0 4.5 -0.5
t4.5 0.5q2 0 3 0.5t2 0.5z" />
    <glyph glyph-name="asciicircum" unicode="^" horiz-adv-x="469" 
d="M158 860q7 2 23 2t23 -2q1 0 2 -1q5 -2 10.5 -0.5t10.5 0.5q4 -2 9.5 -2t10.5 -3q5 -2 10.5 -10.5t7.5 -14.5q3 -11 9 -19.5t11 -19.5q4 -11 9 -21t9 -20l4 -10l4 -8q1 -5 3.5 -10t4.5 -10q2 -8 6 -14t6 -11v-5q0 -2 2 -2.5t3 -3.5v-5q1 -5 4.5 -10t5.5 -10q2 -4 4 -7.5
t4 -7.5q3 -8 6.5 -15.5t5.5 -15.5q2 -5 6 -10t6 -10l12 -24q3 -7 4 -15t-7 -12q-3 -2 -5.5 -2t-6.5 -1q-11 -2 -22 -6t-23 -6q-5 -1 -9.5 -3.5t-9.5 -3.5q-3 -1 -6.5 0t-5.5 0l-4.5 -1.5t-6.5 1.5t-9 8t-7 10q-4 7 -6 16q-2 8 -8 16t-10 16q-2 6 -3 9.5t-3 9.5
q-2 10 -7 17.5t-9 15.5v3q-2 8 -5.5 13t-5.5 13q-2 2 -6.5 11.5t-6.5 9.5t-2.5 -2t-2.5 -5t-5.5 -7.5t-5.5 -9.5q-5 -14 -12 -26.5t-12 -24.5l-2 -7q-2 -6 -7 -11t-7 -11v-4q-4 -9 -11 -20.5t-11 -22.5q-1 -3 -2 -5.5t-2 -4.5v-4q0 -1 -1.5 -1t-1.5 -1q-2 -4 -1 -4
q0 -1 -3 -3t-4 -2q-6 -2 -13.5 0t-12.5 4q-4 1 -9 -0.5t-10 0.5q-2 0 -5 2.5t-7 3.5q-3 1 -6 0t-6 0q-2 0 -4.5 1.5t-4.5 2.5q-8 2 -15.5 3.5t-10.5 4.5q-1 0 -2.5 3t-1.5 4q-3 8 1.5 15.5t6.5 13.5q1 6 5 11t6 10q2 4 2.5 8t2.5 6q5 8 10.5 18.5t10.5 18.5q4 6 7 14t5 16
q2 6 5 11t5 12q2 5 5 9t5 9q4 11 9 20.5t9 18.5l15 42q2 3 4.5 7.5t3.5 7.5q4 8 6.5 18t5.5 19q5 11 10.5 16t16.5 7z" />
    <glyph glyph-name="underscore" unicode="_" horiz-adv-x="833" 
d="M21 58q8 2 20.5 1t19.5 -2q5 -1 10 0t10 0q15 -3 32 0q15 2 34.5 1t37.5 -1h42t37 -2q3 -1 7 0t8 0q17 -2 39.5 -1t45.5 1h114h33.5t29.5 2q12 2 24 0q19 -3 35 0q3 0 6.5 -0.5t7.5 0.5q6 1 16 1.5t20.5 0.5t20.5 -0.5t17 -1.5q9 -2 18 -0.5t17 0.5q11 -2 21.5 -4
t12.5 -12q0 -2 -0.5 -4.5t0.5 -4.5q1 -7 3 -13t1 -14q-1 -2 -1.5 -3.5t-0.5 -3.5q-2 -7 -0.5 -16t0.5 -17q-1 -4 -2 -8.5t-3 -6.5q-4 -3 -13 -2.5t-14 1.5q-8 1 -18.5 0.5t-21.5 -0.5h-25t-21 -2q-4 -1 -7.5 0t-6.5 0q-7 -1 -12.5 -2.5t-11.5 0.5q-4 0 -6.5 1t-5.5 1
q-2 0 -4 -1t-4 -1q-5 -1 -9 -0.5t-9 0.5q-14 -3 -24 -2q-8 1 -18.5 1.5t-22.5 -1.5q-23 -3 -54 -2.5t-58 0.5h-54h-31t-28 2q-5 1 -11.5 0t-11.5 0q-10 1 -24.5 1.5t-28.5 0.5q-12 0 -24 -1t-22 1q-2 0 -3.5 0.5t-3.5 1.5q-6 1 -14.5 0.5t-16.5 -0.5t-16 0.5t-15 -0.5
q-2 0 -3.5 -1t-3.5 -1q-5 -2 -11.5 -1.5t-11.5 1.5q-2 0 -3.5 1t-3.5 1q-7 1 -15.5 0t-15.5 0t-10.5 3t-4.5 8q-2 8 -1 17.5t1 19.5v23.5t1 19.5q1 2 0.5 5t-0.5 4q2 5 8 7.5t11 3.5z" />
    <glyph glyph-name="grave" unicode="`" horiz-adv-x="320" 
d="M83 865q8 1 14 -2.5t10 -9.5t7.5 -13t6.5 -12q1 -2 2.5 -2.5t2.5 -2.5q11 -16 21 -30t21 -30l12 -16q2 -2 3 -3.5l3 -4.5l4 -6q9 -13 17.5 -24t17.5 -25q4 -5 8 -9t2 -11q-1 -5 -6.5 -10.5t-10.5 -7.5q-2 -1 -2.5 -2.5t-2.5 -2.5q-19 -14 -42 -25q-9 -4 -14.5 -8
t-18.5 -2q-1 1 -4 2t-4 3q-5 5 -8 11t-7 11q-2 4 -5.5 7t-5.5 7q-2 3 -4 6.5t-4 7.5l-4 4l-4 4l-18 28q-2 3 -5.5 6t-6.5 7q-10 14 -18 27t-17 27q-2 2 -1.5 3t-1.5 3q-5 8 -11.5 17t-8.5 18q-2 11 6.5 17t15.5 10l15 9l15 9q8 5 15 9t16 6z" />
    <glyph glyph-name="a" unicode="a" 
d="M294 648q4 1 11 0.5t14 -0.5q19 0 32 -2.5t16 -19.5q1 -3 0 -6.5t0 -6.5q0 -2 1 -2.5t1 -1.5q2 -8 1 -15.5t1 -14.5l2 -6t2 -7q1 -2 -0.5 -4.5t-1.5 -4.5q0 -1 1 -1.5t1 -2.5q2 -11 1 -23t1 -21q0 -1 1 -1.5t1 -1.5q2 -8 0 -16.5t0 -15.5q1 -5 2 -13t1.5 -17t0 -17.5
t-1.5 -14.5q-1 -4 -1.5 -9.5t1.5 -13.5q0 -2 2 -4q4 -17 -0.5 -35.5t-1.5 -33.5q1 -5 0 -10t0 -10t2 -8q1 -5 -1 -11t-1 -11q1 -6 0 -17q-2 -4 -2 -5q0 -2 0.5 -3l1.5 -3q2 -9 0 -22t0 -23q1 -6 0 -11q-3 -15 0 -32.5t0 -34.5q-1 -4 -2 -6.5t-2 -5.5q-2 -14 0 -27t0 -24
q0 -2 -1 -2.5t-1 -1.5q-2 -11 0 -22t0 -22q-1 -6 -2.5 -13.5t-9.5 -9.5q-4 -1 -9.5 0t-10.5 0q-1 0 -3 -2q-5 -1 -13.5 -0.5t-16.5 0.5t-16 -0.5t-13 0.5q-14 3 -21 13q-2 1 -2.5 3.5t-2.5 3.5q-2 0 -5 -2t-5 -4l-13 -4q-3 0 -6.5 0.5t-6.5 -0.5q-2 0 -3 -1t-3 -1
q-5 -1 -11 0t-11 0q-10 -1 -20 0q-5 1 -9 0t-8 0q-1 0 -1.5 1t-2.5 1q-6 2 -11 1t-10 1q-3 2 -5.5 4.5t-6.5 3.5h-4q-2 1 -5 3.5t-6 4.5t-7.5 3t-7.5 3q-2 2 -5 4.5t-5 4.5q-8 5 -14.5 14.5t-11.5 17.5q-3 5 -6.5 8.5t-7.5 8.5q-3 5 -4.5 10.5t-3.5 10.5q-1 5 -3.5 9t-4.5 8
q-1 4 -1.5 8t-2.5 8t-2.5 6.5t-1.5 8.5q-1 8 -3.5 14t-3.5 13q-1 2 -0.5 4t0.5 4l-3 6q-2 9 -2 17.5t-2 19.5q0 2 0.5 5t-0.5 6q0 2 -0.5 4.5t-0.5 7.5q-1 4 -1 3.5t1 3.5v15q-1 3 -1.5 3.5t1.5 5.5q2 9 0 22.5t0 22.5q0 1 0.5 1.5t0.5 2.5q2 11 1 22.5t1 22.5q1 4 2.5 7.5
t2.5 6.5q2 8 1 13t0 13l4 14q2 6 1.5 11t0.5 10t3 9t3 9l2 15q2 7 6 14t6 14q2 4 2 8t2 8q1 3 3 5.5t3 4.5q5 13 11 24t13 21l12 12t12 11q7 5 14.5 10.5t15.5 8.5q2 1 5 0.5t5 0.5q5 2 8.5 3.5t9.5 3.5q4 0 8 -0.5t7 0.5q9 2 29.5 3t32.5 -1l5 -2.5t7 0.5q7 2 9.5 10.5
t11.5 10.5q8 2 16.5 1t16.5 1zM195 510q-2 0 -4.5 -1.5t-5.5 -3.5q-2 -2 -5 -2.5t-5 -2.5q-4 -2 -7 -6.5t-6 -8.5q-1 -2 -2.5 -2.5t-2.5 -1.5q-3 -5 -6.5 -11t-5.5 -12l-2 -10l-4.5 -9t-3.5 -10q-1 -7 -2.5 -11.5t-3.5 -9.5q0 -2 0.5 -4t-0.5 -4l-4 -14q0 -3 0.5 -6t-0.5 -6
q-1 -5 -2 -9t-1 -7q0 -2 1 -3t1 -3q-1 -3 -2.5 -5.5t-2.5 -6.5q-2 -12 -1 -29t-1 -26q-1 -4 0.5 -6t1.5 -6q1 -2 -0.5 -4t-1.5 -4q0 -1 1 -2q0 -1 1 -2q2 -5 0.5 -12.5t-0.5 -12.5q2 -2 2 -4q1 -5 0 -11t0 -11q1 -3 2.5 -5.5t1.5 -4.5q1 -4 0.5 -7.5t-0.5 -6.5l6 -17
q3 -8 5 -16t6 -14l10 -15t12 -11q2 -2 4.5 -3t4.5 -3l5 -2.5t5 -1.5q8 -2 11 -1.5t10 1.5q2 1 4.5 0.5t4.5 -0.5q11 2 21 8.5t16 11.5q5 2 5 3q5 5 5.5 13.5t2.5 17.5q2 11 1 23t-1 24v28.5t2 22.5q1 5 0 10.5t0 10.5l4 18q1 6 1 16.5t-0.5 21t-1 20t-1.5 14.5t0 11t0 9
q0 2 -1 2.5t-1 2.5q-2 11 0 24t0 21q-3 15 -3 30.5t-3 28.5q-1 4 -5.5 8t-9.5 5q-5 2 -11 1.5t-11 0.5q-5 2 -7 2.5t-5 -0.5t-6.5 -0.5t-8.5 -1.5z" />
    <glyph glyph-name="b" unicode="b" horiz-adv-x="391" 
d="M44 798q4 1 11.5 1h16h16.5t13 -1t8.5 -5.5t3.5 -9.5q0 -2 -1 -3t-1 -2t1 -2t1 -3q1 -3 0 -7.5t0 -7.5q2 -6 1 -16t1 -19q1 -3 2.5 -5.5t2.5 -5.5q1 -6 1 -19t-1 -20q-1 -2 -2.5 -6t-0.5 -9q2 -8 4.5 -15.5t6.5 -9.5q5 -2 9.5 -1t10.5 0q9 -2 17.5 -5t16.5 -5
q26 -7 44 -16.5t36 -23.5l4.5 -4.5t5.5 -4.5q4 -3 5.5 -4.5t4.5 -6.5q2 -2 4.5 -4t4.5 -5q3 -3 5.5 -7t4.5 -9q7 -8 10 -15q2 -3 1.5 -6.5t1.5 -5.5q1 -2 2 -1.5t1 -0.5v-4l4.5 -9t4.5 -10q1 -3 0.5 -5.5t0.5 -6.5q2 -9 5 -17.5t5 -18.5q2 -6 2.5 -13t1.5 -13q2 -6 0.5 -13
t-0.5 -14q2 -10 1 -18.5t1 -17.5q0 -1 1 -2t2 -3q0 -2 -0.5 -3.5t0.5 -3.5q0 -2 0.5 -2.5t0.5 -1.5q2 -8 -0.5 -17.5t-0.5 -20.5q2 -10 0.5 -16.5t-3.5 -13.5q-1 -5 0 -10t0 -10q-2 -12 -1 -24t-1 -25q0 -2 -1.5 -4.5t-2.5 -5.5q-1 -4 0 -7.5t0 -7.5q-1 -8 -3.5 -15
t-4.5 -14q0 -2 0.5 -4t-0.5 -4q-1 -4 -3 -7t-3 -7q-2 -3 -2 -7t-2 -8q-1 -2 -2.5 -4.5t-2.5 -5.5q-8 -14 -18 -28t-22 -23q-15 -11 -31.5 -20.5t-38.5 -14.5q-5 -1 -8.5 -3t-8.5 -3q-3 -1 -7 0t-7 0q-2 0 -4 -2q-14 -2 -30.5 -1.5t-22.5 -8.5q-2 -2 -2.5 -5t-2.5 -4
t-4.5 -0.5t-4.5 -0.5q-6 -1 -16 -1.5t-21 -0.5t-21.5 0.5t-16.5 1.5q-10 2 -16.5 0.5t-10.5 6.5t-3 21t2 21q3 15 0.5 28.5t-0.5 26.5l3 5q1 4 -0.5 10.5t0.5 12.5q3 20 2 49.5t-1 52.5v244q0 14 0.5 28.5t-1.5 25.5q-2 6 -0.5 12.5t0.5 12.5l-3 6q0 2 0.5 6t-0.5 8t-1 4.5
t1 4.5q2 6 1 14.5t-1 16.5t1 16t-1 15q0 3 -1.5 6.5t-2.5 6.5q-3 18 0 36.5t0 35.5q-1 5 -1.5 15.5t-1 21.5t0.5 21.5t3 15.5q2 4 8 6t13.5 2.5t14.5 1t12 1.5zM125 506q0 -5 -1.5 -8.5t-0.5 -8.5q2 -7 2 -16.5t-2 -15.5q-2 -11 -1 -26.5t1 -29.5v-112q0 -15 1 -29.5
t-1 -26.5q0 -2 -1 -3t-1 -2q0 -2 1.5 -4t0.5 -4q0 -2 -0.5 -3l-1.5 -3q-1 -8 0 -16.5t-1 -19.5q-2 -10 -1 -20t2 -15q1 -3 0.5 -7.5t-0.5 -8.5l2 -4q1 -2 1 -3q2 -1 7.5 -0.5t7.5 0.5q13 0 19.5 2t14.5 6q3 2 6.5 3t5.5 3q11 7 21.5 22.5t12.5 28.5q2 7 3.5 12t2.5 11
q1 2 0.5 4t-0.5 4l3 6q1 5 -0.5 10t0.5 11q2 9 4 26.5t-1 29.5q-2 11 -1.5 26t-1.5 29q-2 6 -0.5 11.5t0.5 11.5q-1 3 -2.5 6.5t-2.5 6.5q-1 6 -0.5 10t-1.5 9q-3 19 -12.5 35.5t-19.5 30.5q-5 5 -7 6q-7 5 -13 9t-14 8q-3 2 -5 3.5t-4 2.5q-2 0 -2.5 -0.5t-2.5 0.5
t-6.5 3.5t-8.5 -0.5q-1 0 -1 -1z" />
    <glyph glyph-name="c" unicode="c" horiz-adv-x="422" 
d="M190 648q8 1 19 -2q5 -1 10 0.5t10 -0.5q2 0 4 -2q5 -1 11 -0.5t11 -0.5q8 -2 16 -6t16 -7q3 -1 6.5 -2.5t6.5 -3.5q11 -7 22.5 -16t17.5 -21q2 -3 5.5 -6t6.5 -7q4 -5 7.5 -13t4.5 -12v-4q1 -3 3 -5t3 -4t0 -3.5t0 -3.5q1 -4 3 -7.5t3 -8.5q1 -2 0.5 -4t-0.5 -4
q1 -2 2 -3.5t2 -3.5q2 -7 1 -13.5t1 -12.5q0 -2 1 -3.5t1 -3.5t-1 -3t-1 -3t1 -3t1 -3q2 -6 0.5 -15.5t-1.5 -16.5v-7.5t-4 -5.5q-2 -1 -4 -0.5t-4 0.5l-4 -2q-14 -3 -33.5 -0.5t-32.5 0.5q-2 -1 -5 -2t-5 -1q-2 1 -2.5 1.5t-2.5 1.5q-2 0 -4 -0.5t-3 0.5q-8 2 -6.5 11.5
t-0.5 19.5q-1 5 -2 8.5t-2 9.5q-2 8 -5 14t-5 13q-4 11 -10.5 21t-15.5 15q-2 2 -5.5 2.5t-5.5 2.5q-2 1 -2.5 2t-1.5 2q-5 1 -12.5 1t-12.5 -1q-6 -2 -14.5 -6.5t-13.5 -8.5q-15 -11 -24 -29.5t-14 -38.5q0 -2 -1.5 -5t-1.5 -5q-2 -7 -3.5 -15t-3.5 -15q0 -2 0.5 -4.5
t-0.5 -5.5q0 -2 -2 -4q-2 -9 0 -21.5t0 -23.5q-1 -5 -3 -10.5t0 -13.5l2 -4q1 -5 -0.5 -11t0.5 -11l3 -27q2 -5 0.5 -10t-0.5 -10q2 -7 2 -17t2 -18l3 -11q0 -2 1.5 -4t1.5 -4q1 -2 0.5 -3t-0.5 -3q1 -3 2 -6.5t2 -8.5q1 -4 3 -7.5t3 -6.5q5 -13 12.5 -27t19.5 -22
q7 -5 17 -10t22 -3q11 2 21 14t14 23q2 6 3 13t3 13q1 3 0 6.5t0 7.5q1 6 1 15.5t0.5 19t1.5 17t6 9.5q5 3 12 2t17 1q12 2 28 3t24 -1q1 0 2 -1t2 -1q6 -1 13 -1t9 -6q2 -5 0.5 -13.5t-0.5 -15.5q0 -1 1 -1.5t1 -2.5q2 -6 1 -16t-3 -18q-2 -10 -1 -19t-1 -16q0 -1 -2 -3
q-2 -10 -2.5 -18t-3.5 -18q-1 -5 -3.5 -8.5t-4.5 -8.5q-4 -17 -12.5 -30t-19.5 -24l-18 -16l-6 -2q-5 -3 -8 -4.5t-8 -3.5q-4 -2 -7.5 -4.5t-7.5 -3.5q-3 -1 -6 0t-6 0q-3 0 -6 -1.5t-6 -2.5q-2 0 -5.5 0.5t-6.5 -0.5q-22 -3 -40 0q-2 1 -5.5 0t-6.5 0q-2 2 -4 2
q-5 2 -11 1.5t-11 0.5q-2 1 -5 3t-6 3q-2 2 -4.5 1.5t-4.5 0.5q-11 5 -21 11t-18 12q-12 8 -21 22t-17 26q-2 2 -3.5 2.5t-2.5 2.5l-2 7q-2 2 -3.5 4t-2.5 4q-1 4 -0.5 6.5t-1.5 4.5q-2 6 -5 10t-5 11q-1 4 -0.5 6.5t-1.5 7.5q-1 5 -3.5 9.5t-4.5 10.5q0 2 0.5 4t-0.5 4
q-1 5 -2.5 13.5t-3.5 13.5q-1 5 -0.5 11t-0.5 11l-3 5q0 2 0.5 5t-0.5 5q0 1 -2 3q-1 5 0.5 10.5t-0.5 11.5q0 2 -2 4q-2 11 0 22.5t0 21.5q-1 4 -2 18.5t1 23.5q0 1 0.5 1.5t0.5 2.5q2 11 0 22.5t0 22.5l2 4q2 7 0.5 13.5t-0.5 12.5q2 2 2 3q1 2 0.5 5t-0.5 5l3 5
q1 6 0.5 10t0.5 10l6 31q2 6 3.5 11t2.5 11q1 5 2.5 9.5t3.5 9.5t4.5 8.5t3.5 7.5q2 7 6 12t8 12q1 1 1 2.5t1 3.5q11 17 28 32.5t38 23.5q10 4 20.5 9t22.5 7q3 1 6.5 0.5t7.5 -0.5q2 2 4 2q4 1 8.5 1t6.5 1z" />
    <glyph glyph-name="d" unicode="d" horiz-adv-x="450" 
d="M282 799q7 2 16.5 1.5t18.5 -2.5q12 -2 25.5 0t18.5 -7q1 -2 2.5 -7.5t1.5 -7.5q0 -3 -2 -7t-2 -7q0 -1 1 -2t1 -2q1 -4 0.5 -8t-0.5 -8q2 -9 2 -24.5v-29.5t-1 -27.5t1 -23.5q2 -8 3 -27t-1 -30q0 -2 -1 -2.5t-1 -2.5q-1 -5 0.5 -12t-0.5 -13q-1 -4 -2.5 -7t-1.5 -6
q0 -6 3 -10.5t1 -10.5l-4 -24v-17q1 -4 1 -4.5t-1 -4.5t0 -8.5t0 -8.5q0 -1 -1 -1.5t-1 -2.5q-2 -7 0 -16t0 -18q-2 -11 -1 -20.5t-1 -17.5q-1 -2 -2 -9t0 -12q1 -4 0 -9q-1 -4 0.5 -9t-0.5 -10q-1 -3 -2 -9.5t0 -11.5q1 -6 0 -11q-1 -4 0 -8t0 -9q0 -2 -0.5 -4.5l-1.5 -7.5
q0 -4 -0.5 -4.5t0.5 -4.5q2 -4 0.5 -10t-1.5 -9q-3 -14 -0.5 -29.5t0.5 -29.5q-1 -2 -2 -3t-1 -2q-2 -11 -1 -24.5t-1 -23.5q-2 -11 -1 -26.5t1 -29.5v-32.5t2 -27.5q2 -6 0.5 -12.5t-5.5 -7.5q-3 -2 -7 -1t-7 1l-5 -3q-5 -1 -12 0.5t-13 -0.5q-9 -1 -20 0q-7 2 -12 0
q-8 -1 -13.5 -1.5t-10.5 1.5q-6 2 -10 10t-12 10q-4 2 -8 0.5t-9 -0.5q-2 0 -2.5 1t-2.5 1q-8 2 -16 1t-16 1q-1 0 -1.5 1t-1.5 1q-3 1 -6.5 0.5t-6.5 -0.5l-6 4q-4 2 -8.5 2t-7.5 2q-12 5 -24.5 12t-22.5 15q-2 1 -6 7q-4 2 -6 3.5t-4 5.5q-2 3 -5.5 5.5t-5.5 5.5
q-5 7 -10.5 15.5t-10.5 17.5t-8 19.5t-8 22.5q-3 10 -6 22.5t-5 23.5q-1 2 -0.5 4.5t0.5 4.5q-1 3 -2.5 6.5t-2.5 8.5q-1 4 0 8.5t0 8.5q-3 15 -3 34.5v40.5v41.5t3 36.5q2 2 2 4q1 5 0 10.5t0 10.5l4 19q2 6 3.5 12.5t2.5 12.5q2 13 7.5 24.5t8.5 23.5l4 13q2 7 6 12.5
t8 11.5l2 6q5 8 10 15.5t10 14.5q2 2 4 3.5t3 3.5q8 14 21.5 23t27.5 18q2 2 7 3.5t8 3.5q11 4 20 5q2 1 4.5 0.5t4.5 -0.5l5 3q3 0 6 -0.5t6 0.5q12 1 24 0q4 -1 8 -0.5t7 0.5q5 -1 7 -2.5t5 -0.5q10 2 9 12.5t1 21.5q2 6 3 22t-1 27q-2 12 -1 22t-1 21q-2 10 -1 19.5
t9 13.5q5 2 13.5 2t13.5 1zM188 512q-4 -2 -7.5 -4t-7.5 -5q-5 -4 -9 -10t-8 -11q-1 -2 -2.5 -2.5t-2.5 -2.5l-2 -7l-4 -2q-3 -5 -4.5 -11.5t-3.5 -12.5q-2 -5 -3 -10t-3 -8l-2 -12q-1 -4 -2.5 -7.5t-2.5 -7.5q-1 -2 -0.5 -4t0.5 -4l-3 -4q0 -2 0.5 -5t-0.5 -5q0 -2 -1 -3.5
t-1 -5.5l2 -4q1 -4 0 -7t-2 -8q-1 -8 -0.5 -17t0.5 -18v-22t2 -18q1 -5 0 -9.5t0 -7.5l3 -5q0 -3 -0.5 -6.5t0.5 -6.5q1 -8 3 -14.5t4 -13.5q3 -13 8 -23l10 -20l2 -6q2 -2 5 -4.5t5 -4.5q8 -8 19.5 -16.5t24.5 -10.5q9 -2 15.5 0t8.5 9q2 9 1.5 20t-1.5 22t-1.5 21.5
t1.5 18.5l3 5q0 3 -1 8.5t1 10.5q1 11 0 19q-2 5 -0.5 10.5t1.5 8.5q3 14 0 25q0 4 0.5 7.5t1.5 8.5q2 8 2 11.5t-2 10.5q-1 7 1.5 15t0.5 16q-1 4 -1 4.5t1 4.5q2 8 1 17.5t1 19.5q1 5 0 10t0 10q2 9 4.5 25t-0.5 28q-2 8 -8 11.5t-13 8.5q-1 1 -1 2t-2 1q-3 2 -12.5 3
t-13.5 -1q-2 -1 -2.5 -2.5t-2.5 -2.5z" />
    <glyph glyph-name="e" unicode="e" horiz-adv-x="476" 
d="M188 641q5 2 11.5 1t11.5 -2q11 -2 22 -1t22 -1l14 -4q5 -2 10.5 -3t10.5 -3q6 -2 12 -6t11 -8q5 -2 8 -4t8 -5q4 -2 10 -8.5t8 -11.5q1 -2 2.5 -2.5t2.5 -2.5l11 -19q2 -4 5.5 -9.5t5.5 -9.5q2 -3 2 -5.5t1 -4.5q1 -3 2 -4.5t2 -6.5q1 -6 2.5 -10.5t3.5 -11.5
q1 -5 2.5 -8.5t3.5 -7.5q1 -6 0.5 -12.5t0.5 -13.5l3 -5q2 -13 1 -27t1 -28l2 -4q2 -7 0 -15.5t0 -14.5t8.5 -8t8.5 -8v-5l2 -4t1 -6q-3 -3 -3 -5t1 -3t2 -3q1 -5 -0.5 -11.5t0.5 -13.5q2 -9 1.5 -13l-1.5 -12q-1 -2 -2 -3t-1 -2q0 -2 2.5 -7.5t2.5 -7.5t-2 -3.5t-3 -5.5
q-1 -3 -0.5 -4.5t-1.5 -3.5q-2 -1 -5.5 0t-7.5 0q-2 0 -2.5 -1t-1.5 -1q-4 -1 -7.5 0t-6.5 0q-5 -1 -7 -2.5t-7 -0.5l-5 3q-11 2 -28 1t-29 -1h-115q-14 0 -30 1t-27 -1q-1 0 -2 -1t-3 -2h-6q-3 -1 -5 -7t-2 -10q-2 -5 0.5 -9t3.5 -7q1 -4 0 -5.5t0 -5.5q0 -2 2 -4
q2 -7 1 -12.5t1 -11.5q2 -12 9.5 -24t16.5 -17q2 -2 6 -4l8 -4q8 -5 18.5 -5.5t21 2t20.5 5.5t16 6q5 2 10 4.5t10 5.5q7 3 13 6.5t11 6.5q6 4 15 7t14 -1q7 -5 11.5 -12.5t9.5 -15.5q2 -3 2 -6.5t2 -5.5t4 -2q2 -3 4 -8t4 -8q5 -8 11.5 -15.5t4.5 -20.5q-1 -4 -6 -9.5
t-9 -7.5q-8 -7 -21 -15t-25 -14q-10 -5 -19.5 -8.5t-20.5 -7.5l-12 -4q-4 0 -7 0.5t-5 -0.5q-2 0 -2.5 -0.5t-1.5 -0.5q-6 -2 -12.5 -1.5t-11.5 -0.5q-6 -2 -12.5 -3.5t-13.5 0.5l-5 3q-11 2 -23.5 1t-22.5 1q-1 0 -1.5 0.5t-1.5 0.5q-3 2 -6 1t-6 -1q-5 2 -9.5 4.5
t-9.5 4.5q-62 22 -85 83q-2 5 -3 9t-3 10q-1 4 -3 8t-3 8q0 2 0.5 4t-0.5 4q0 3 -1.5 6t-1.5 6q-1 2 -0.5 5t0.5 5q-1 4 -2.5 7.5t-2.5 7.5q-2 15 0 30t-2 29q-2 12 -1.5 31t0.5 34q0 17 -1 35.5t2 30.5q2 5 0.5 10t-0.5 10q2 6 2 15t2 16l3 5q2 8 1 15t1 15q0 4 1.5 7.5
t1.5 6.5q2 7 2 13t2 12q2 7 4 13.5t4 14.5q1 4 3 7t3 7q2 2 1.5 4.5t0.5 4.5q2 5 5 9t5 9q4 7 6 13t7 12q2 2 3.5 3t2.5 3q34 48 93 64q4 1 9 0.5t10 1.5q1 0 5 2q3 0 6.5 0.5t5.5 0.5zM184 520q-8 -3 -14 -6.5t-11 -9.5q-14 -18 -20.5 -38.5t-11.5 -47.5q-2 -5 -2.5 -12
t-1.5 -11q-2 -5 -2 -12v-11q1 -17 19 -18t34 2q8 2 19 1t19 -3q3 -1 6 0t6 0q2 -1 7.5 -2t9.5 0t4.5 1t4.5 -1q22 -5 29 9q2 6 0.5 13t-3.5 14q-2 12 -1 24t-1 23q0 3 -1.5 6t-1.5 5q-1 2 -0.5 3t0.5 3q-2 7 -4.5 13t-4.5 11q-4 13 -14 28q-2 2 -4.5 3t-4.5 3q-2 1 -2.5 2.5
t-2.5 2.5q-2 2 -5 2.5t-5 2.5q-6 3 -13 5t-16 0q-3 -1 -5.5 -2.5t-5.5 -2.5z" />
    <glyph glyph-name="f" unicode="f" horiz-adv-x="449" 
d="M242 764q8 2 25.5 2t26.5 -2q8 -1 20.5 -2.5t14.5 -8.5q1 -2 0 -8.5t0 -11.5q2 -6 2 -15.5t-2 -15.5q-1 -5 0 -11t0 -10l-4 -11q-2 -6 -1 -11t-4 -7q-11 -3 -22.5 -0.5t-21.5 0.5q-2 0 -3 -1t-2 -1q-8 -2 -14.5 -1t-14.5 -1q-2 0 -4 -1.5t-4 -2.5l-14 -4t-12 -6
q-5 -3 -10 -10t-6 -13q-1 -2 -0.5 -5t0.5 -5q-2 -11 -3 -20t1 -23q2 -8 -1 -14t-1 -14q0 -1 1 -2t1 -2q1 -5 0 -9t0 -8q1 -3 2 -7t0 -9q0 -2 -1 -3t-1 -2q0 -2 1.5 -5t2.5 -7q1 -6 -0.5 -14.5t3.5 -10.5q3 -2 14 -0.5t14 2.5q11 2 26 1t26 1q7 2 15 0t16 0q1 0 5 2q9 2 20 0
t21 0l4 2q5 1 10 0t10 0q4 0 6.5 0.5t8.5 -0.5q2 -1 5.5 -4t4.5 -6q0 -2 -0.5 -5.5t0.5 -6.5q0 -2 1.5 -4.5t1.5 -5.5q2 -11 1 -24.5t1 -24.5q1 -3 2 -5t1 -5l-5 -11q-1 -5 -1.5 -7t-5.5 -3q-5 -2 -10 -0.5t-10 0.5q-2 -2 -5 -2q-10 -2 -20.5 -1t-21.5 -1l-6 -3
q-11 -2 -25 -1t-27 -1l-29 -3q-7 -2 -14.5 -0.5t-14.5 0.5q-2 -2 -4 -2q-3 -1 -5 -0.5t-4 0.5l-7 -11q-1 -3 0 -7.5t0 -8.5q0 -2 -1 -2.5t-1 -2.5q-2 -8 -1 -18.5t1 -21.5v-79v-23.5t-2 -20.5q-2 -7 -0.5 -13l2.5 -10q2 -7 0 -16t0 -15q0 -2 1.5 -4.5t0.5 -7.5
q-1 -7 -3.5 -14t-0.5 -16q1 -6 1.5 -15.5t-1.5 -17.5q-1 -2 -3 -6.5t-4 -5.5q-3 -2 -9 -0.5t-11 0.5q-2 0 -3 -1t-2 -1q-6 -2 -16.5 -2t-18.5 2q-5 1 -9 2t-9 0q-2 0 -4.5 -1.5t-7.5 -0.5q-1 0 -2 1t-3 1q-5 1 -7.5 1t-4.5 4q-2 7 0 15.5t0 18.5q-1 3 -2.5 7t-1.5 7t1.5 6.5
t2.5 6.5q1 6 0 13.5t0 14.5q1 9 1.5 22.5t0.5 28.5v30v27v52q0 16 0.5 32.5t-2.5 29.5q-1 3 -3.5 6t-4.5 4t-4.5 -0.5t-4.5 -1.5q-4 -1 -11 -0.5t-13 -1.5q-2 -1 -6 -2.5t-8 -0.5q-3 1 -6.5 3.5t-4.5 4.5t0 5t0 6q-1 4 -2.5 8t-2.5 9q-1 2 -0.5 3t0.5 3l-3 5q0 2 0.5 4
t-0.5 4q0 2 -1.5 7.5t-2.5 8.5q0 2 0.5 4.5t-0.5 4.5q-1 5 -2 9t-1 6t0.5 5t0.5 4q5 9 19.5 11t26.5 4q8 1 18 1.5t12 7.5q2 6 1 13.5t-1 14.5q0 8 0.5 15.5t-0.5 13.5q-3 15 0 31q1 5 -1 10t-3 11q-2 9 -1 22.5t3 20.5q2 11 1 22.5t1 22.5q0 2 1.5 6t2.5 6l2 20q2 9 8 18.5
t11 17.5q8 11 20.5 19.5t26.5 14.5q9 3 17.5 7t19.5 6q3 1 6 0.5t5 -0.5q4 1 7.5 2.5t8.5 2.5q2 0 5 -0.5t6 0.5q2 0 4 2q5 1 9.5 0.5t7.5 0.5z" />
    <glyph glyph-name="g" unicode="g" horiz-adv-x="490" 
d="M206 642q1 0 5.5 0.5t7.5 -0.5q13 -2 30.5 -1t37.5 -3q16 -3 32.5 0t30.5 0q2 0 4 -2q6 -1 11.5 0.5t10.5 -0.5q2 0 2.5 -1t1.5 -1q7 -2 15.5 -1.5t15.5 0t12 -3t7 -9.5q2 -9 1.5 -21.5t-2.5 -22.5q-2 -5 -0.5 -11.5t0.5 -11.5l-3 -5q-2 -6 -2 -14t-5 -10t-14 -1t-16 1
h-15h-11.5t-4.5 -6q0 -2 1.5 -3.5t3.5 -4.5q4 -7 5.5 -12.5t4.5 -13.5q2 -7 6 -17.5t6 -19.5l5 -35q2 -5 1 -11.5t-1 -12.5v-15.5t-1 -12.5q-2 -8 -0.5 -16t0.5 -13q-3 -12 -5.5 -25.5t-6.5 -24.5q-1 -2 -2.5 -3t-1.5 -3q-1 -2 -0.5 -3t-0.5 -2q-1 -2 -2 -2t-1 -1
q-1 -2 -0.5 -3.5t0.5 -3.5q-1 -2 -2.5 -3.5t-3.5 -5.5l-5 -10l-23 -34q-4 -5 -10.5 -9.5t-12.5 -9.5q-4 -2 -7.5 -5t-7.5 -6q-5 -3 -14 -7.5t-15 -6.5q-2 -1 -4.5 -1t-4.5 -1q-5 -2 -8.5 -3.5t-8.5 -2.5q-4 -1 -7.5 -0.5t-6.5 0.5q-2 -2 -4 -2q-5 -2 -12 -0.5t-14 0.5
q-2 -2 -4 -2q-5 -1 -10.5 0t-8.5 -1q-2 -1 -7 -8.5t-6 -9.5q-3 -8 0 -15.5t12 -6.5q2 0 3 1t3 1q4 1 6.5 0t7.5 -2q12 -3 26 -1t26 -1l17 -4q6 -2 11.5 -1t10.5 -1q5 -1 11.5 -3.5t11.5 -4.5q4 -1 8 -1.5t8 -2.5q5 -2 14 -6.5t14 -7.5q8 -5 16.5 -15.5t13.5 -18.5
q3 -5 4.5 -10.5t3.5 -11.5l5 -9q1 -5 -0.5 -11t0.5 -11q0 -3 1.5 -6.5t2.5 -6.5q0 -4 -2 -7.5t-2 -6.5q0 -4 1 -6t1 -5q-1 -2 -2.5 -3.5t-1.5 -3.5q-1 -4 0 -7t0 -8q-1 -4 -3 -8t-3 -8q-2 -4 -4 -9t-5 -9q-2 -2 -4 -4.5t-3 -4.5q-3 -5 -10 -12.5t-13 -11.5q-23 -16 -46 -25
q-5 -2 -11 -4t-11 -4q-6 -1 -11.5 -0.5t-11.5 -1.5q-1 0 -1.5 -1t-2.5 -1q-2 -1 -5.5 0t-5.5 0q-1 0 -2 -1t-3 -1q-3 -1 -7 0t-8 0t-13 -1.5t-18.5 -1t-19 -0.5t-15.5 1q-6 2 -11.5 4t-7.5 8q0 2 0.5 5t-0.5 5q-1 4 -1.5 13t-0.5 18.5t0.5 19t1.5 15.5q2 8 1.5 15t3.5 11
q6 6 19 4t24 0q2 2 4 2q7 2 15.5 1t16.5 1q4 1 11 3t14 5t11.5 8t3.5 11q-2 5 -8.5 7.5t-12.5 4.5q-2 1 -3.5 2.5t-2.5 1.5l-20 2q-6 1 -12 1.5t-12 2.5q-6 1 -12 -0.5t-12 0.5q-1 0 -2 1t-2 1q-8 2 -18 1t-20 -1h-75q-14 0 -28.5 -0.5t-16.5 10.5q-1 4 0.5 7.5t1.5 6.5
q1 3 0.5 5.5t-0.5 4.5q2 5 3.5 9.5t3.5 9.5q1 3 0.5 6.5t0.5 6.5q2 4 2.5 9t1.5 11l4 9q2 5 2.5 9.5t1.5 9.5q2 8 5 15t5 15q1 2 0.5 3t-0.5 3q1 4 4 8t4 9v4q2 5 4.5 8t3.5 7q2 8 0.5 13.5t-4.5 9.5t-7.5 7.5t-7.5 8.5q-7 9 -13.5 19.5t-9.5 21.5l-4 10t-3 10
q-2 6 -3.5 11.5t-3.5 10.5q-1 6 -0.5 13t-1.5 15q-1 5 -2 20t1 24q0 2 1 7t2 9q2 4 0.5 8.5t-0.5 8.5q1 5 2 8.5t3 9.5l5 20q2 5 2 10.5t2 9.5q1 3 3 6.5t3 6.5q2 4 2 7.5t2 7.5t4 7.5t4 7.5t2.5 7.5t2.5 5.5q0 -1 3 2q2 2 2.5 5.5t2.5 5.5q2 4 4.5 8t5.5 8q3 5 7.5 9.5
t8.5 9.5q8 10 17.5 20t19.5 17l8 4t9 5l22 11q1 1 1.5 2.5t2.5 1.5q4 2 9.5 2t10.5 2q4 2 10.5 3.5t11.5 2.5q4 1 9 1t8 1zM173 504q-11 -8 -19 -19.5t-14 -22.5l-10 -20t-7 -19l-7 -24q-3 -14 -2.5 -31.5t2.5 -30.5q1 -3 0.5 -5t-0.5 -4q1 -3 3.5 -5.5t3.5 -6.5
q2 -12 8 -21q2 -4 6.5 -7.5t8.5 -5.5q5 -3 11 -7.5t11 -5.5q17 -3 32 0q5 1 13.5 6t14.5 10q21 13 30 32q2 5 5 9.5t5 9.5q2 4 4 9t3 9q0 3 -0.5 5.5t0.5 5.5q0 1 2 3q1 5 0 12t-2 13q-1 2 -0.5 4.5t0.5 4.5l-3 4q0 2 0.5 4t-0.5 4q-2 11 -5.5 22t-8.5 22q-3 10 -9.5 18
t-12.5 16q-2 4 -6 6l-9 8l-12.5 7.5t-15.5 1.5q-5 -1 -10 -4.5t-10 -6.5z" />
    <glyph glyph-name="h" unicode="h" horiz-adv-x="418" 
d="M27 806q4 0 12 -2q4 -1 8.5 0t9.5 0q15 -2 29 -0.5t26 -1.5q13 -1 11 -20q-1 -2 -2 -3.5t-1 -2.5t1 -2t2 -3q1 -8 1.5 -17.5t-1.5 -17.5q-1 -4 0 -8t0 -9l-5 -15q-2 -10 -1 -27t3 -25q2 -5 2 -10.5t2 -7.5q4 -2 9 0.5t8 2.5q6 2 12 1.5t14 0.5q8 2 16.5 3t15.5 -1
q3 0 5 -2q3 0 6.5 0.5t6.5 -0.5q8 -1 16 -4.5t16 -5.5q10 -4 19.5 -11.5t18.5 -14.5q4 -3 6.5 -6.5t4.5 -6.5t4.5 -5t4.5 -4q2 -3 4.5 -7.5t4.5 -9.5t4.5 -9t4.5 -8l2 -10l4 -6v-6q1 -5 3 -9t3 -9l2 -18l4 -19q1 -3 0 -6.5t0 -6.5q0 -2 1.5 -4.5t2.5 -6.5q1 -5 -0.5 -10
t0.5 -11q0 -3 1.5 -5.5t0.5 -7.5q-1 -8 -3.5 -16t-0.5 -19q1 -5 0 -12q-2 -6 0 -13l2 -14q0 -3 1.5 -6t0.5 -8t-2 -9t-2 -9q-3 -16 -0.5 -33t0.5 -33q-1 -2 -1 -6t-1 -9q-1 -7 0 -14q2 -8 1 -18t-1 -21v-77q0 -10 -1 -20.5t1 -18.5t1.5 -16.5t-9.5 -10.5q-8 -2 -20 -1
t-23 -1q-4 -1 -11 -2.5t-13 0.5q-2 0 -3.5 1t-4.5 1q-2 0 -4.5 -1t-4.5 -1t-3 0.5l-3 1.5q-6 2 -11 2t-7 5q-1 2 -1 7.5t-1 10.5q-3 17 -2.5 41t0.5 45v41v25t2 20q2 11 1 22.5t1 22.5q2 14 1 33t-1 39q0 14 -1 27t1 24q2 17 -1 33.5t-5 33.5q-2 11 -8.5 25.5t-13.5 22.5
q-5 6 -16 10t-23 2q-4 -1 -9.5 -4t-10.5 -5q-11 -5 -17 -12q-2 -2 -2 -4t-1 -6q0 -3 -1 -5.5t-1 -5.5t1 -5.5t1 -6.5q0 -2 -2 -6q-1 -5 0.5 -10t-0.5 -10q0 -2 -0.5 -3t-0.5 -3q-4 -19 -1 -45.5t1 -45.5q-1 -6 0 -11q1 -8 0.5 -17t-0.5 -19v-175q0 -17 1 -35.5t-1 -34.5
q-1 -5 -2 -8t0 -8q0 -3 1.5 -9t0.5 -11l-4 -8q-2 -5 -1.5 -7.5t-3.5 -4.5l-11 -3q-8 -1 -18.5 -0.5t-21.5 0.5q-12 0 -22.5 -0.5t-17.5 0.5q-10 2 -13.5 5t-5.5 14q-2 10 1 16.5t1 15.5q-1 8 -2.5 15t-2.5 14q-2 8 0 15.5t3 14.5q2 13 1 27.5t-1 28.5v334q0 18 0.5 36
t-2.5 33q0 2 -0.5 3.5t-0.5 2.5q0 4 1.5 7t1.5 7q2 10 1 22.5t-1 25.5v97v29t2 24q1 4 0 7.5t0 6.5q2 8 11 10t16 4z" />
    <glyph glyph-name="i" unicode="i" horiz-adv-x="220" 
d="M76 629q5 1 13.5 0t13.5 -2q3 0 5.5 1t4.5 1q1 0 5 -2q5 -1 10.5 -0.5t8.5 -1.5q4 -2 4.5 -7t1.5 -12q1 -3 2 -5t1 -6l-3 -6q-1 -6 -1 -16.5t1 -17.5l3 -6q1 -7 1 -20.5t-1 -23.5l-3 -6q-2 -14 -1 -33t1 -34v-134q0 -17 -1 -34.5t1 -32.5q2 -8 3 -14t0 -14l-3 -6
q-2 -11 0 -21q1 -4 2.5 -7t0.5 -9q-2 -7 -4.5 -19t-0.5 -23q2 -10 1 -18t-3 -18q-1 -5 -0.5 -11t0.5 -10q1 -5 1 -5.5t-1 -5.5t0 -11t0 -11q0 -2 -0.5 -3t-0.5 -3q-2 -6 -1 -12.5t-2 -10.5q-2 -2 -9 -3.5t-11 -2.5q-5 -1 -7.5 0t-5.5 2q-14 2 -30 0t-29 0q-2 0 -3 1t-3 1
q-4 1 -9 0t-7 0q-3 1 -5 7t-3 14t-1 16.5t1 13.5l3 6q1 8 -0.5 16t0.5 16q2 20 1 41t2 38q2 9 0 17.5t-3 15.5q-2 7 0 14t3 15q1 5 0 10t0 10q3 20 1.5 43t-1.5 47q0 26 1 46.5t1 47.5v110q0 14 1 28.5t-1 25.5q0 2 -1 3.5t-1 3.5t1 2.5t1 2.5q2 8 4 12.5t8 6.5
q2 0 4.5 -0.5t4.5 0.5q2 0 3 0.5t3 0.5q8 2 15.5 1.5t12.5 0.5zM72 853q6 2 11.5 1t9.5 -2q2 -1 4 -0.5t4 0.5q14 -2 23.5 -12.5t14.5 -22.5q2 -6 2 -13.5t2 -15.5q1 -3 2.5 -5.5t0.5 -6.5l-3 -4q-1 -5 -0.5 -8.5t-1.5 -7.5q-8 -36 -37 -50q-6 -3 -12 -3.5t-17 -0.5
q-6 0 -11 -1t-10 1q-4 1 -11 4.5l-11 5.5q-19 13 -28 38q-5 11 -7 21.5t0 24.5q6 33 32 46l13 4q2 1 3.5 2t3.5 2q5 2 11 2t12 1z" />
    <glyph glyph-name="j" unicode="j" horiz-adv-x="292" 
d="M106 628q8 2 22.5 1t27.5 -1q14 0 26.5 1t23.5 -1q2 0 4.5 -1.5t3.5 -2.5q1 -2 2 -7t0 -10q0 -2 -1 -2.5t-1 -2.5q-2 -6 1 -11t1 -11q-1 -2 -2.5 -4.5t-1.5 -5.5q-4 -14 0 -28q0 -3 1.5 -6.5t2.5 -6.5q2 -10 0 -22t0 -24q2 -11 3 -20.5t3 -19.5q1 -3 -0.5 -5t-1.5 -5
q0 -1 2 -3q1 -5 -0.5 -11t0.5 -11l2 -4q2 -11 1 -22.5t1 -22.5q0 -2 1 -3t1 -2q1 -5 0 -10.5t0 -11.5q2 -13 2 -27.5t2 -25.5q2 -8 0 -15t0 -13q0 -2 2 -4q0 -3 -0.5 -6t0.5 -6l2 -4q2 -6 1.5 -17t-1.5 -17q-1 -1 -1 -2t-1 -1q0 -3 1 -4.5t1 -4.5q-1 -2 -1.5 -2t-0.5 -2
q-2 -5 -0.5 -10t0.5 -12q-2 -2 -2 -3q-1 -3 0 -4.5t2 -5.5t0 -8t-2 -9q-2 -8 -1 -15.5t-1 -15.5q-1 -2 -1 -5.5t-1 -7.5q0 -2 -1 -3t-1 -2q0 -2 1 -3t1 -3t-1 -3t-1 -3q-2 -6 -1.5 -11.5t-0.5 -12.5l-4 -14l-2 -17q-1 -5 -2 -8.5t-2 -8.5q-2 -8 -5.5 -16.5t-6.5 -16.5l-2 -9
q-2 -4 -4 -7.5t-4 -8.5q-2 -6 -3.5 -12t-4.5 -11q-2 -4 -5 -7t-5 -6q-3 -4 -4.5 -8.5t-4.5 -8.5q-2 -3 -4.5 -5t-4.5 -6q-2 -3 -5 -5l-6 -4q-6 -5 -10 -9t-9 -8q-8 -6 -19.5 -12.5t-22.5 -10.5q-2 -1 -5 -0.5t-5 -1.5q-5 -2 -10.5 -4t-10.5 -4q-7 -1 -17.5 -1.5t-15.5 1.5
t-8.5 9t-5.5 14q-1 2 -2.5 4.5t-2.5 5.5l-5 16q-3 9 -7.5 17t-6.5 16q0 2 0.5 3.5t-0.5 2.5q0 1 -0.5 1.5t-0.5 2.5l2 6q2 7 3 8q5 3 9.5 3.5t9.5 2.5q17 6 32.5 15t25.5 23q7 9 12.5 21t10.5 26q2 4 4 7.5t4 8.5l4 21q1 5 2.5 8.5t3.5 8.5q1 8 1 15t2 15l3 4q2 11 1 22.5
t1 23.5q0 1 2 3q1 4 0 8.5t0 9.5t1.5 7t-0.5 5q0 1 -0.5 1.5t-0.5 2.5q-2 11 0 22.5t0 22.5q-1 4 0 9t0 10.5t-2 8.5q-2 11 0 23.5t0 25.5q-2 4 -2 5q-2 8 -0.5 15.5t0.5 14.5l-3 4q0 2 0.5 4t-0.5 4l-1 4l1 4q2 6 0 11t-3 10q-2 11 0 23t0 23l-4 16q-5 20 -2 43t0 40l-3 12
q0 4 -0.5 4.5t0.5 4.5q2 11 0 29.5t0 30.5l3 5q2 6 2.5 10t5.5 6zM148 852q5 2 9 1l8 -2q7 -2 11.5 -1t9.5 -1q2 -1 2.5 -2t1.5 -2l7 -2q9 -6 17 -16.5t13 -22.5q2 -5 2.5 -9.5t2.5 -11.5q1 -3 2.5 -7t1.5 -8l-6 -27q-6 -20 -21.5 -30.5t-33.5 -19.5q-3 -2 -11.5 -1t-13.5 1
q-7 0 -13 -1t-11 1q-4 1 -9.5 4.5t-9.5 5.5q-6 4 -11.5 11t-9.5 14q-4 5 -6 13t-4 15q-2 5 -0.5 9.5t0.5 8.5q-1 5 -2 8t0 7q5 22 14 35q6 9 18.5 18t24.5 11q5 1 9.5 0.5t7.5 0.5z" />
    <glyph glyph-name="k" unicode="k" horiz-adv-x="452" 
d="M23 798q3 1 7.5 0t9.5 -2q8 -2 16.5 0t16.5 0q12 -2 21.5 -1t18.5 -1q14 -2 11 -22q-2 -2 -2 -4q-2 -9 0 -17.5t0 -16.5l-3 -4q-1 -4 0.5 -6t2.5 -6q1 -6 0.5 -13.5t-0.5 -14.5q0 -8 0.5 -16t-0.5 -13q-1 -2 -2 -2.5t-1 -2.5t1.5 -3t1.5 -4q0 -2 -1 -3t-2 -3
q-1 -3 -1 -10v-15t0.5 -15t0.5 -11q1 -4 1 -4.5t-1 -4.5q-2 -8 0 -17t0 -19q-2 -13 -1 -33t-2 -32q-2 -6 -1 -19t3 -18q2 -8 1 -18t-1 -20q0 -9 -1 -19t1 -18q0 -4 1.5 -7.5t2.5 -6.5q0 -1 -1 -1.5t-1 -2.5q0 -4 3 -9.5t5 -6.5q3 -2 11 -3t13 1q5 1 10.5 6t7.5 11
q2 2 1.5 4.5t0.5 4.5q2 5 5 9.5t5 10.5v4q2 5 4 8.5t4 8.5t5 8.5t5 7.5l2 10q2 5 5 8.5t5 7.5q5 8 8 17.5t8 17.5q3 5 6.5 9.5t6.5 9.5q5 6 7.5 13.5t7.5 14.5l20 31q1 1 2.5 1.5t2.5 2.5q5 7 9 16t12 13q6 3 12 1.5t12 -5t11 -8t9 -7.5q5 -4 10.5 -6.5t10.5 -5.5
q4 -3 7.5 -7t6.5 -6q5 -4 11.5 -7t7.5 -11q0 -4 -3 -10.5t-5 -10.5q-2 -3 -6 -5.5t-6 -5.5t-3.5 -7t-3.5 -7l-23 -38q-4 -6 -6.5 -13t-5.5 -12l-4 -2q-3 -5 -6 -12t-6 -13l-20 -41l-6 -15l-4 -3q0 -2 0.5 -3t-0.5 -3q-1 -5 -3.5 -9t-4.5 -9l-6 -19q-3 -10 -6 -17t-5 -18
q-1 -5 -1.5 -9t1.5 -11q0 -3 2 -6t3 -7q2 -3 1.5 -6.5t0.5 -7.5q2 -5 3.5 -9.5t2.5 -9.5q1 -2 0.5 -4.5t-0.5 -4.5q2 -9 5.5 -17t4.5 -16q1 -2 0.5 -3t-0.5 -2q1 -2 2.5 -4t1.5 -4q2 -5 1.5 -9t0.5 -9q2 -7 4 -13.5t4 -14.5q1 -2 0.5 -3.5t-0.5 -3.5l4 -10q2 -8 -2 -14
q-2 -4 -9.5 -5.5t-14.5 -3.5q-9 -2 -20.5 -6t-21.5 -6q-2 -1 -5.5 -0.5t-5.5 0.5q-11 -2 -21.5 -4t-15.5 9q-2 6 -2 13t-2 14q-1 4 -3 8t-3 9q-2 14 -5.5 27.5t-6.5 26.5q0 2 0.5 4t-0.5 4q-1 4 -3 8.5t-3 9.5q0 2 0.5 3t-0.5 3q0 2 -1.5 3.5t-2.5 3.5q-2 8 -3 16t-5 14
q-1 1 -3 5q-1 2 -3 3q-2 2 -10 1.5t-9 -1.5q-2 0 -3.5 -5.5t-1.5 -7.5t1 -4.5t1 -5.5q-1 -2 -2.5 -4.5t-1.5 -4.5q0 -1 1 -1.5t1 -2.5t-1 -2.5t-2 -2.5q-1 -4 0.5 -5.5t2.5 -6.5q2 -13 0 -25l-3 -5q0 -2 0.5 -5t-0.5 -5q0 -4 -1 -5.5t0 -4.5v-10q-2 -11 0 -25t0 -24
q-1 -3 -2.5 -5.5t-1.5 -5.5q0 -2 1.5 -7t0.5 -10q-1 -2 -2.5 -4t-1.5 -4q0 -3 1 -7.5t-1 -9.5q-1 -2 -10.5 -5.5t-17.5 -1.5q-3 1 -5.5 2t-6.5 0t-12.5 -2.5t-15.5 0.5q-2 0 -2.5 1t-2.5 1q-4 1 -8 0t-7 0q-4 2 -5 2q-3 1 -7 0t-7 0q-4 2 -6.5 7.5t-2.5 9.5q-1 3 1 10t0 13
q0 3 -0.5 4.5t0.5 5.5q3 15 2.5 32.5t1.5 32.5q0 1 1 2t2 3q1 4 -1 10.5t-4 11.5q-2 8 0.5 14t4.5 13q1 5 -1 8.5t-2 6.5t2 6.5t3 7.5q2 14 1 32.5t-1 36.5v35q0 9 0.5 18t-0.5 17l-2 4q-2 12 0 24t0 22l-3 12q-1 4 -1 4.5t1 3.5q2 9 1 21t-1 23v264q0 11 -1 23t1 21l3 4
q2 8 0.5 15t1.5 14q1 4 6.5 6t10.5 3z" />
    <glyph glyph-name="l" unicode="l" horiz-adv-x="199" 
d="M18 800q4 1 9.5 0t9.5 -2q2 0 5.5 0.5t6.5 -0.5q13 -2 27.5 -0.5t25.5 -1.5q8 -2 7.5 -10t-0.5 -19v-126q0 -13 -1 -26.5t1 -24.5l3 -9t2 -9q0 -2 -1 -3.5t-1 -2.5q0 -2 1 -3t1 -3q2 -11 1 -25.5t-1 -28.5v-32t2 -28q2 -17 -0.5 -35.5t0.5 -33.5q0 -2 2 -4q0 -4 -0.5 -9
t0.5 -10q0 -4 0.5 -7.5t-0.5 -10.5q-1 -5 -1 -6t1 -5q1 -5 0 -10.5t0 -10.5q1 -8 3 -14t0 -12q-1 -7 -1 -17t1 -18q2 -12 0 -26t0 -24q1 -4 2 -7t1 -6l-2 -4t-1 -4t1 -3t2 -3q1 -3 0 -6.5t0 -6.5q2 -17 2 -39t3 -39q2 -5 1 -9.5t-1 -9.5q1 -5 0 -10t0.5 -12.5t2 -15
t-0.5 -13.5t-7 -8q-5 -2 -9.5 0t-10.5 0q-2 0 -2.5 -1t-2.5 -1q-7 -2 -15.5 0t-17.5 0q-10 -2 -23.5 -3t-21.5 1q-9 3 -7.5 15t-0.5 24q0 3 -0.5 6t-1.5 8t-1 5.5t1 4.5q2 11 -1 22t-1 22q1 2 1.5 3.5t0.5 3.5q0 4 -1 8.5t-2 8.5q-3 14 -1.5 31.5t-0.5 28.5q-1 2 -0.5 4.5
t0.5 5.5q-1 5 0 10q1 8 1 20.5t-1 20.5l-3 11q-1 5 -1 5.5t1 4.5q1 5 0 10.5t0 9.5t2 6t1 5l-3 7q0 3 0.5 7t-0.5 7q0 2 -2 6q-1 5 0 10.5t0 11.5q-1 4 -1.5 7t-0.5 7q2 6 4 14.5t0 19.5q-1 8 -2.5 14.5t-3.5 13.5q-1 5 0.5 10t1.5 9q2 11 1 24.5t-1 26.5v29.5t-2 26.5
q-1 4 0.5 9.5t-0.5 10.5q0 2 -0.5 3t-0.5 2q-2 8 0 14t3 14q2 9 1 19.5t-1 21.5v82q0 11 1 21.5t-1 19.5t-1 20t11 13q3 1 5 1t4 1z" />
    <glyph glyph-name="m" unicode="m" horiz-adv-x="653" 
d="M26 646q2 0 2.5 -0.5t2.5 -1.5q5 -1 14 -0.5t19 0.5q9 0 18.5 -0.5t15.5 0.5l6 1.5t8 -1.5q10 -2 9.5 -7t1.5 -15q1 -6 4 -7t6.5 1t7 4.5t6.5 3.5q2 1 4.5 1t4.5 1q4 2 8.5 3.5t9.5 2.5q3 1 6.5 0.5t6.5 -0.5q4 1 8.5 2.5t9.5 -0.5q1 0 5 -2q5 -1 10.5 -0.5t10.5 -0.5
q5 -2 11.5 -5t11.5 -6q11 -6 17.5 -11t14.5 -13l7.5 -7.5t9.5 -1.5q7 2 15.5 10t16.5 13l6 2q8 5 15 10t16 9l14 3l8 4t8 3q3 0 6 -0.5t5 0.5q13 2 23 2.5t21 -1.5q2 0 2.5 -0.5t2.5 -0.5q6 -2 10.5 -1.5t9.5 -1.5q4 -1 8.5 -3.5t9.5 -5.5q11 -6 20.5 -11t18.5 -12
q5 -3 8.5 -9t6.5 -11q2 -5 6 -8.5t5 -6.5v-5q2 -4 5 -7.5t5 -7.5v-5q1 -3 3 -5t3 -4q1 -1 0.5 -2.5t-0.5 -3.5q1 -5 4 -9t4 -9q2 -8 4 -23l4 -12q1 -4 0 -7t0 -7q0 -2 1 -2.5t1 -2.5q2 -5 2.5 -13t1.5 -13q2 -5 0.5 -10.5t-0.5 -10.5q0 -1 1 -2t1 -2q2 -10 1 -26.5t-1 -27.5
q0 -14 1 -28.5t-1 -25.5q-1 -2 -1.5 -4t-0.5 -5q0 -1 1 -2t1 -3t-0.5 -3l-1.5 -3q-2 -8 -1 -20t-1 -23l-2 -4q-1 -5 0 -9.5t0 -9.5t-2 -8.5t-1 -8.5q-1 -2 0 -3.5t1 -4.5l-4 -25q0 -1 -0.5 -1.5t-0.5 -1.5l-1 -1q0 -2 1 -3.5t1 -3.5t-2 -6q-1 -6 -0.5 -11t-1.5 -12l-4 -15
q-2 -9 -1 -18t-1 -17q0 -2 -0.5 -2t-1.5 -2q0 -2 0.5 -4t-0.5 -4q0 -2 -2 -4q-1 -5 0 -10.5t0 -10.5q0 -4 -2 -14.5t-4 -11.5q-2 -2 -5 -1t-6 0t-5 -2t-5 0q-2 0 -3 1t-3 1q-8 2 -18 1t-19 -1q-13 0 -28 -0.5t-18 7.5q-2 6 -1 12.5t3 12.5q1 5 0 9.5t0 8.5q0 1 1 2t1 2
q0 2 -0.5 5.5t0.5 5.5q0 2 1 3t1 3q2 10 1 21.5t1 22.5l4 17q2 8 0 16.5t0 16.5l4 12q1 3 0 6.5t0 6.5q0 2 1 3t1 3q2 10 1 21.5t1 22.5q0 2 1 2.5t1 2.5q3 14 0.5 29t-0.5 28q1 3 2 8.5t0 10.5q-1 4 -1.5 8t1.5 10q0 2 1 4t1 6q-1 2 -2.5 7.5t-1.5 7.5q0 1 1 2t1 2
q1 5 0 10.5t-2 9.5q-1 2 -0.5 4t0.5 5q0 1 -1 1.5t-1 2.5q-2 8 -1 15.5t-1 15.5q-1 4 -2 8.5t-2 9.5l-2 4t-2 6q-2 5 -6.5 12t-7.5 12q-2 4 -5.5 5t-7.5 3q-2 2 -3 4t-3 2q-8 2 -16 0q-5 -2 -12.5 -7t-12.5 -7q-2 -1 -4 -0.5t-3 -1.5q-2 -1 -2.5 -3t-2.5 -3q-6 -5 -12.5 -10
t-12.5 -13q-5 -7 -10 -11t-7 -13q-2 -10 1 -21t1 -19q-2 -2 -2 -4q-1 -5 0 -9.5t0 -9.5q-1 -2 -1.5 -2t-0.5 -2q-1 -3 0 -6.5t0 -7.5q0 -2 -1 -2t-1 -2q-2 -7 0 -13.5t0 -13.5q-1 -5 -1 -8t1 -9q1 -5 -0.5 -9.5l-3.5 -10.5q-2 -9 0 -19.5t0 -18.5q0 -2 -1 -3t-1 -3
q-2 -6 -0.5 -12t0.5 -13q-3 -12 0 -23q1 -6 0 -13.5t-2 -11.5q-2 -5 -0.5 -11t0.5 -11t-1.5 -12.5t1.5 -12.5q4 -15 -1.5 -29.5t-2.5 -28.5q0 -1 1 -1.5t1 -2.5l2 -13q2 -6 1 -14t-3 -14q-2 -8 -1.5 -14.5t-3.5 -8.5q-2 -1 -4 0t-4 0q-2 0 -5 -1.5t-8 -0.5q-3 1 -3.5 1
t-4.5 -1q-5 -1 -10.5 0t-10.5 0q-7 -1 -13.5 -2.5t-14.5 0.5q-2 0 -3 1t-3 1q-8 2 -14.5 0.5t-9.5 4.5q-5 8 -4 21t-1 26q-1 3 -2.5 8.5t-1.5 7.5q0 1 1 2t1 3q2 11 0 28t0 28q1 5 2.5 16t-0.5 18q-1 3 -1.5 6.5t1.5 9.5q2 11 2 28t2 28q1 5 0 10t0 9q0 2 1 3t1 2
q3 14 1.5 29.5t0.5 28.5q0 1 2 3q1 6 -1.5 11t-2.5 10q0 3 1.5 6t2.5 7q1 3 0 6t0 6q3 17 0 37q-2 12 -1.5 26.5t-2.5 25.5q-2 5 -7 14.5t-9 14.5q-2 2 -7.5 5.5t-7.5 4.5q-12 4 -22 -1t-18 -10t-17 -16t-11 -22q-1 -7 -0.5 -13t-0.5 -13l-2 -4t0 -6q0 -4 0.5 -5t-0.5 -5
q-2 -4 -1 -9t1 -9q-2 -2 -2 -3q-2 -5 -0.5 -10.5t0.5 -11.5l-1.5 -7.5t1.5 -8.5q1 -6 -1.5 -14.5t-0.5 -16.5q1 -6 1.5 -12t-1.5 -14q0 -1 -1 -2t-1 -2q0 -2 1 -4t1 -4q0 -1 -1 -1.5t-1 -2.5q-1 -2 0 -5t0 -5q0 -2 -1 -2.5t-2 -2.5q-1 -4 -0.5 -10t0.5 -12t-0.5 -11.5
t0.5 -10.5l3 -5q2 -9 0 -21t0 -22q1 -4 0 -9q-1 -4 0 -10t2 -9q2 -15 0.5 -32.5t1.5 -31.5q0 -1 2 -3q1 -4 0 -10.5t-3 -8.5q-2 -5 -9.5 -3.5t-15.5 -0.5q-2 -2 -4 -2q-8 -2 -15 0t-15 0q-2 -2 -4 -2q-3 -1 -8 -0.5t-7 0.5q-7 -1 -15 -1.5t-12 3.5q-5 5 -3.5 15.5t-0.5 21.5
l-3 5q-1 5 0 10.5t0 11.5q-1 5 -2.5 9t-1.5 6t1 3t1 2q2 6 1 17t-3 16q-3 16 0.5 35.5t-0.5 34.5q-1 4 -1.5 12t-0.5 17t0.5 17t1.5 13q2 6 1 15.5t-1 17.5t1 16.5t-1 15.5q-2 14 -1 30t1 35q0 11 -1 21.5t1 21.5q2 2 2 4q4 19 0.5 39t-0.5 38l2 4q2 9 0 17.5t0 16.5
q1 2 1.5 2.5t1.5 2.5q2 8 1.5 17t-1.5 15q-1 2 -2 3.5t-1 3.5t1 3t2 3q0 2 -0.5 3.5t0.5 2.5q2 8 8.5 10.5t12.5 3.5z" />
    <glyph glyph-name="n" unicode="n" 
d="M70 655q4 1 8.5 0t7.5 -2t5 0t6 2q6 2 14 1t15 -3q11 -2 19.5 -0.5t14.5 -1.5q6 -2 7.5 -10t6.5 -10q4 -1 8 0.5t6 1.5q8 2 16.5 1t16.5 1q3 1 5 2t5 1l6 -3q5 -1 9.5 0t9.5 0l16 -4q6 -1 11 -0.5t10 -1.5q2 0 5 -2t5 -4q18 -7 30 -14q8 -5 16.5 -14.5t13.5 -17.5
q3 -5 5.5 -11t5.5 -12q4 -8 8 -14t6 -14q0 -3 -0.5 -5.5t0.5 -4.5q1 -3 3 -6t3 -7q1 -5 0.5 -10t0.5 -10l3 -6q0 -2 -0.5 -4t0.5 -4q0 -3 0.5 -7t1.5 -9q1 -8 0.5 -17.5t1.5 -18.5q2 -14 1 -26t1 -23q1 -6 1 -15t-1 -14q-2 -5 -0.5 -11t0.5 -11q-1 -3 -2.5 -5t-1.5 -5
q-2 -10 2 -19t2 -20q-2 -4 -2 -5q-2 -5 -0.5 -11t0.5 -12q-2 -2 -2 -5q-3 -16 -1 -32.5t-1 -33.5l-3 -5q-2 -11 -0.5 -23.5t-0.5 -23.5q-2 -4 -2 -5q-1 -3 -0.5 -6t0.5 -7l-4 -18q-1 -4 0 -7t0 -6q-2 -4 -2 -5q-1 -3 0 -5.5t-1 -5.5q-1 -2 -5 -4.5t-6 -2.5q-7 -2 -18.5 -0.5
t-20.5 1.5q-5 0 -9.5 -1t-7.5 0q-1 0 -5 2q-3 0 -6 -0.5t-6 0.5q-2 0 -6 2q-4 1 -7.5 -0.5t-6.5 0.5q-6 1 -7.5 8t-1 16t2 18t2.5 14q2 8 0.5 17t-0.5 17l3 6q2 10 1 21t1 22q0 1 0.5 2t0.5 2q2 11 0 22.5t0 22.5q2 10 2 24v28q0 23 1 39.5t1 38.5q0 7 0.5 14t-0.5 13
q-1 7 -1.5 15t-2.5 13q-2 8 -0.5 16t-0.5 14q-1 2 -2 3.5t-2 3.5q-5 13 -10.5 24t-16.5 18q-5 3 -10 4.5t-10 3.5q-2 1 -3.5 2.5t-3.5 1.5q-6 2 -12 0.5t-11 -2.5q-3 0 -5.5 0.5t-4.5 -0.5q-3 0 -4 -1.5t-3 -2.5q-7 -2 -12 -3t-10 -3q-9 -5 -10.5 -16.5t-3.5 -25.5l-3 -5
q0 -2 0.5 -4.5t-0.5 -4.5q-2 -13 -4.5 -26t-4.5 -27q-1 -2 -0.5 -4t0.5 -4l-3 -6q-1 -5 0 -9.5t0 -9.5l-3 -16q-1 -2 -0.5 -4.5t0.5 -4.5q-2 -4 -2 -5q-2 -5 -0.5 -9.5t0.5 -9.5q-2 -4 -2 -5q-2 -5 -0.5 -11t0.5 -12q-2 -2 -2 -5q-1 -4 0 -8t0 -8l-3 -6q-1 -5 0.5 -10
t-0.5 -11q-1 -5 -2 -14t1 -15q0 -2 0.5 -3t0.5 -3t-0.5 -3t-0.5 -3q-1 -2 -0.5 -5t0.5 -6q-3 -17 -3 -46.5v-49.5q0 -5 1 -11t2 -10q1 -5 -0.5 -13t0.5 -16q0 -3 1.5 -13.5t-0.5 -15.5q-2 -8 -9 -7t-16 -1q-1 0 -2 -1t-3 -1q-9 -2 -19 -1t-19 -1q-2 0 -3 -1t-3 -1
q-7 -2 -20 -2t-17 2q-5 2 -5 8t-2 14q-1 4 -2.5 7.5t-1.5 5.5q0 4 2 9t0 11q0 1 -2 5q-1 5 0.5 9.5t-0.5 9.5q-2 8 -1.5 22t0.5 27t-0.5 26t1.5 22q2 8 0.5 16.5t-0.5 16.5q2 7 2.5 13.5t1.5 14.5q2 8 0.5 16.5t-0.5 16.5l3 5q1 5 -0.5 10.5t0.5 10.5q0 4 1.5 6.5t1.5 6.5
q2 9 1 17t1 19l4 17q1 5 0 8.5t0 8.5q0 2 1 2.5t2 2.5q0 3 -0.5 6t0.5 5l7 47q2 6 1.5 12t0.5 12q0 2 1 3t1 3q2 10 1 19.5t1 19.5l2.5 5t1.5 5q2 8 2 17t2 17q0 2 1 3t1 3q1 3 0.5 6.5t-0.5 6.5l4 17q1 3 0 6t0 7q2 11 2.5 24t3.5 22q2 6 7.5 8t11.5 4z" />
    <glyph glyph-name="o" unicode="o" horiz-adv-x="499" 
d="M187 641q8 2 17 1t17 -3q3 -1 6.5 0t6.5 0q3 0 5.5 -1.5t4.5 -1.5q2 -1 3.5 -0.5t3.5 0.5q9 -2 17 -6.5t17 -9.5q10 -7 20 -13.5t17 -15.5l13 -19q2 -2 2.5 -5.5t2.5 -5.5q2 -4 4 -7.5t4 -8.5q1 -4 4 -7.5t4 -7.5q2 -11 5.5 -17t14.5 1q5 4 11 9t11 7q8 4 16 -1t10 -13
q0 -1 -0.5 -2t0.5 -3q0 -1 1 -0.5t2 -0.5q2 -2 2.5 -5t2.5 -6l3 -3q3 -5 5.5 -11t4.5 -12q5 -8 9.5 -12.5t6.5 -11.5q3 -11 0 -18q0 -1 -1.5 -1.5t-2.5 -1.5q-2 -5 -6 -9t-8 -7l-35 -22q-5 -4 -13.5 -7.5t-12.5 -8.5q-3 -5 -3.5 -11.5t1.5 -12.5q2 -8 1 -21.5t-1 -25.5v-26
t-2 -23q-2 -6 0 -13.5t0 -14.5l-2 -4q-1 -3 -0.5 -5.5t0.5 -4.5q0 -1 -1 -2t-1 -3t1 -2.5t1 -2.5q1 -2 0 -4t-2 -6q-1 -2 0 -5t0 -6q-1 -5 -3 -10.5t-3 -10.5q-1 -3 -0.5 -6t0.5 -6q-1 -2 -2 -4.5t-2 -5.5l-2 -15q-1 -4 -3 -7.5t-3 -8.5v-5q-1 -3 -3 -6t-3 -7
q-2 -7 -3.5 -10.5t-6.5 -10.5q-2 -3 -3.5 -7t-3.5 -7q-6 -11 -14.5 -22.5t-18.5 -18.5q-6 -4 -12.5 -8.5t-12.5 -7.5q-3 -2 -6.5 -2.5t-6.5 -1.5q-5 -2 -9.5 -4.5t-9.5 -3.5q-4 -1 -7.5 0t-6.5 0q-8 -2 -18.5 -3t-18.5 1q-7 2 -15 0.5t-15 -0.5q-1 0 -1.5 1t-1.5 1
q-3 1 -7 0t-7 0l-14 4q-4 1 -8 2.5t-9 3.5q-8 3 -14 8t-13 9q-8 5 -16.5 13t-13.5 15q-5 8 -12 16.5t-10 18.5q-2 5 -6 10.5t-6 10.5q-3 12 -5.5 24t-6.5 24q0 2 -1.5 6.5t-1.5 7.5q-2 5 -1.5 11t-0.5 12l-3 5q-1 3 0 6.5t0 6.5q0 2 -2 4q-2 8 -1 17t-1 17q-1 8 -1 20.5
v26.5q0 12 -1 23.5t1 19.5q0 2 0.5 2.5t0.5 1.5q2 7 0.5 13.5t-0.5 14.5q1 2 2.5 4.5t1.5 5.5q1 4 0 8t0 7l3 5q0 2 -0.5 3t0.5 3q1 7 2.5 14t2.5 15l7 20q0 2 -0.5 4.5t0.5 4.5q1 5 3.5 10t3.5 11v6q1 5 3.5 10.5t4.5 12.5q2 5 4 9.5t4 10.5q2 5 6 11.5t8 11.5
q4 7 6.5 13.5t7.5 13.5l18 19q11 11 21.5 18.5t24.5 16.5q5 3 9 3.5t9 2.5q4 2 8 3.5t9 2.5q4 1 10 1t9 1zM118 341q-2 -11 -2 -21.5t-2 -24.5q-2 -11 -1 -26.5t3 -22.5q1 -4 0 -8t0 -6q2 -6 2 -13t2 -13q1 -5 3 -10t3 -10q1 -6 1.5 -9.5t2.5 -8.5q4 -14 12 -29t19 -23
q5 -3 14 -8.5t14 -6.5q10 -2 17.5 2t13.5 9q8 5 12 14t8 17q1 4 3 7t3 7l4 16t3 14q1 2 0.5 6t-0.5 6q1 1 1.5 1t1.5 2q2 8 1 16.5t1 15.5l4 16q1 5 0.5 11.5t-0.5 14.5q0 6 0.5 13t-0.5 12q-2 9 -2 21t-2 19q-3 8 -12.5 5.5t-17.5 -0.5l-4 2q-5 1 -9 0t-8 0q-2 0 -2.5 1
t-2.5 2q-3 0 -6 -0.5t-6 0.5q-4 0 -7 1.5t-7 1.5q-3 1 -6.5 0.5t-7.5 -0.5q-6 2 -12 4.5t-11 3.5q-3 2 -7 2.5t-5 0.5q-3 -1 -5.5 -9.5t-3.5 -14.5zM165 503q-4 -7 -1 -11.5t10 -8t15 -6t14 -3.5q3 0 6.5 0.5t5.5 -0.5q3 -1 11 -2t13 1q8 2 4.5 10t-5.5 13q-3 5 -5 8.5
t-5 5.5q-2 1 -3.5 3t-3.5 4q-8 6 -17 8q-7 0 -10 -1q-6 -2 -16 -9t-13 -12z" />
    <glyph glyph-name="p" unicode="p" horiz-adv-x="461" 
d="M75 663q5 1 13.5 -0.5t17.5 -3.5q3 0 5.5 0.5t4.5 -0.5l16 -4q11 -2 25.5 -2.5t21.5 -6.5q2 -2 2 -5t1 -6q2 -7 14 -8t19 -3q6 -2 12 -1.5t12 -0.5q6 -2 13 -5q14 -5 28 -10.5t25 -13.5l10 -8q5 -3 10.5 -9t8.5 -11q6 -8 11.5 -16t11.5 -18q2 -5 6 -10t6 -10
q0 -1 -0.5 -2.5t0.5 -2.5q0 -2 1.5 -2t1.5 -1q1 -1 0.5 -2t0.5 -3l2.5 -5t3.5 -6l3 -15l4 -8t3 -8q1 -5 0.5 -7.5t1.5 -7.5q1 -5 2.5 -10.5t3.5 -10.5q2 -8 2 -15.5t2 -15.5q0 -1 0.5 -1.5t0.5 -2.5q2 -3 1 -6.5t-1 -7.5q1 -2 2.5 -4.5t1.5 -4.5q2 -11 0 -22.5t0 -21.5
q1 -4 2.5 -6t0.5 -5l-3 -4q-2 -9 -1 -18t-1 -18q0 -1 -2 -3q0 -2 0.5 -4t-0.5 -4q0 -3 -1 -8t-2 -8t-0.5 -6t0.5 -6l-8 -28v-4q-2 -6 -4.5 -11t-4.5 -10q-7 -23 -20 -44l-3 -3v-5q-2 0 -4 -2t-1.5 -4t-1.5 -4q-2 -3 -4 -5t-4 -5q-3 -5 -8 -9t-7 -8q-6 -10 -19 -20
q-8 -5 -17.5 -13t-19.5 -14t-21.5 -10.5t-22.5 -9.5q-5 -2 -8.5 -3.5t-9.5 -2.5q-5 -2 -11 -4t-11 -4q-8 -2 -14 -1t-11 -1q-1 0 -2 -1t-3 -1q-5 -2 -11 -1t-12 -1q-3 -1 -7 -5t-4 -6t2 -4q1 -4 0 -8.5t0 -7.5l5 -23q1 -2 0.5 -3.5t-0.5 -3.5l3 -4q0 -2 -0.5 -4.5t0.5 -4.5
q2 -9 5 -18t-1 -18q-3 -5 -10.5 -7t-15.5 -4l-12 -4q-8 -2 -15 -1t-13 -1q-1 0 -2 -1t-3 -1q-1 -1 -3 -0.5t-4 0.5q-8 -2 -19 -4.5t-17 2.5q-2 2 -3.5 8t-3.5 12q-1 5 -2.5 10.5t-3.5 11.5q0 2 0.5 5t-0.5 5q0 3 -1.5 5.5t-2.5 5.5q0 3 0.5 6.5t-0.5 6.5l-3 25l-3 5
q-2 7 0 16t0 17q0 2 -2 4q-1 5 -0.5 10.5t-1.5 11.5q-1 5 0 12q1 5 0.5 11.5t-2.5 10.5q-1 5 0.5 12t-0.5 13q-1 6 -1 16.5v20.5t-0.5 19.5t1.5 15.5q3 10 0.5 22t-0.5 22q2 2 2 4l2 16q2 6 0 13t0 15q2 2 2 4q2 5 0.5 9.5t-0.5 9.5l3 4q2 10 1 18.5t1 16.5q0 1 0.5 1.5
t0.5 1.5q2 5 0.5 10t-0.5 10q2 9 3 19.5t3 20.5q1 3 0 6t0 6q0 1 1 1.5t2 2.5q2 10 1.5 19.5t1.5 19.5q2 8 3 18.5t3 19.5q0 1 1 2t1 2q2 6 1.5 13t0.5 13q2 5 2.5 11t1.5 12t3 11t3 10q2 6 1.5 12t0.5 12l8 34q1 4 2 7l2 6t0 6t0 6q2 11 7 20.5t14 11.5zM152 468
q-1 -7 -0.5 -11.5t-1.5 -10.5q-1 -6 -2.5 -13.5t-3.5 -12.5q-1 -7 -1.5 -13.5t-2.5 -14.5q-1 -7 0 -14t-1 -14q-1 -3 -2.5 -8t-1.5 -7q-1 -2 -0.5 -5t0.5 -5l-3 -5q-2 -7 -1 -16t-1 -16q0 -1 -1 -1.5t-1 -1.5q1 -2 2 -3.5t0 -4.5q0 -2 -2 -4q0 -4 1 -9.5t-1 -10.5
q0 -3 -1.5 -5t-1.5 -4q0 -1 2 -5q2 -10 -2 -17t-2 -16q1 -4 0 -9q-1 -4 0 -8.5t0 -8.5l-3 -5q-1 -4 0.5 -9t-0.5 -11q-2 -8 -1.5 -15t1.5 -15q2 -5 2 -10.5t3 -7.5q2 -1 9 -0.5t10 0.5q8 2 15 4.5t15 5.5q8 2 16.5 7t13.5 9q9 7 19 13.5t17 16.5q9 12 17 25.5t13 27.5
q2 4 2 12q2 5 3.5 9t3.5 9q1 4 0.5 9.5t1.5 10.5q0 1 0.5 1.5t0.5 2.5q1 4 0 9.5t0 10.5q2 7 2 19t-2 18q-2 9 -0.5 18t-0.5 16q-2 2 -2 4q-1 2 -0.5 4t0.5 4l-3 5q-2 7 -3 14t-3 15q-1 6 -3.5 11l-5.5 11q-2 3 -3.5 7.5t-3.5 6.5q-5 8 -11 15.5t-13 12.5q-6 5 -15.5 9
t-17.5 5q-5 1 -7 2.5t-5 2.5q-5 1 -10 1.5t-7 -0.5q-8 -2 -11 -15t-5 -22z" />
    <glyph glyph-name="q" unicode="q" horiz-adv-x="452" 
d="M271 646q3 1 5 0t6 -2q5 -1 10.5 -0.5t11.5 -1.5q7 -1 14 0.5t12 1.5q2 0 3 -0.5l3 -1.5q4 -1 10 -1h11.5t9.5 -1t6 -4t1.5 -10.5t-0.5 -12.5v-23q0 -11 -1 -23t1 -22q1 -4 1 -4.5t-1 -4.5q-1 -5 0 -10.5t0 -9.5q-2 -6 -2 -7q0 -2 0.5 -3.5t1.5 -3.5q2 -8 1 -16.5
t-1 -16.5q-2 -48 -1 -98t1 -101q0 -10 -1 -20t1 -18q1 -6 3 -11.5t1 -11.5q-1 -7 0 -14q3 -17 0.5 -39.5t1.5 -37.5q2 -10 1 -22t-1 -23v-89q0 -11 -1 -23t1 -21q1 -6 2.5 -19t-0.5 -24q-1 -4 -4 -10.5t-5 -7.5q-3 -2 -11.5 -1t-13.5 1h-25q-13 0 -26 -1t-24 1q-4 1 -6 5
t-4 9q-3 17 1 39.5t1 39.5q-2 10 -4 17t-11 9q-8 2 -16.5 1t-16.5 1q-2 0 -2.5 1t-2.5 1q-3 1 -6.5 0t-6.5 0q-5 1 -10.5 3.5t-11.5 4.5q-12 5 -22.5 7.5t-20.5 8.5q-3 2 -6 3t-5 3q-5 4 -10 9.5t-10 9.5q-6 4 -12 9.5t-10 12.5q-2 2 -4.5 4t-4.5 4l-11 18q-1 1 -2.5 1.5
t-2.5 2.5q-3 5 -5 9.5t-4 9.5q-1 2 -2 2.5t-2 1.5l-4 10l-4 10q-3 9 -7.5 17t-6.5 16v5q-2 9 -5 15.5t-5 14.5l-5 41l-3 6q-2 11 -2 23t-2 23q0 4 -1.5 7.5t-1.5 7.5q-2 8 -2 18t2 17q2 17 2.5 32t2.5 32l7 27q1 4 0.5 7.5t0.5 7.5q2 5 3.5 9t3.5 9q5 16 11 28.5t14 26.5
l17 27q2 3 6 6t8 7q3 4 6 7.5t7 6.5q6 5 13 8.5t14 8.5q2 1 3.5 2.5t3.5 2.5q8 3 16 5.5t16 4.5q2 1 3.5 2.5t3.5 1.5h4l5 3q3 0 6.5 -0.5t6.5 0.5q5 0 8.5 1t8.5 2q4 1 8 0t8 0q5 1 9.5 2t9.5 0q4 -1 6.5 -2t5.5 0q5 2 9.5 6t9.5 6zM188 504q-8 -4 -17.5 -9t-14.5 -13
q-7 -9 -15 -20.5t-10 -22.5q-2 -8 -4 -14t-3 -14l-3 -10l-3 -26q-2 -8 0.5 -16t0.5 -15v-8q2 -5 0.5 -14t-0.5 -14q2 -2 2 -4q1 -3 0 -6.5t0 -7.5q2 -5 3.5 -9.5l3.5 -10.5q0 -2 -0.5 -5.5t0.5 -6.5q0 -3 2 -7t3 -8q3 -14 8.5 -26.5t11.5 -22.5l11 -19l5 -4q5 -7 10.5 -13
t13.5 -11q6 -3 11.5 -8t11.5 -7t13 -4.5t12 -3.5q16 -3 17.5 7t-0.5 20q-2 4 -1 8t3 9q1 7 0 17t-2 14q-2 5 -0.5 10.5t0.5 11.5q-4 14 -1.5 35.5t-0.5 35.5q0 1 -1 2t-2 3q-2 11 -1 23.5t1 24.5v28.5t-2 23.5q-2 8 -1 17.5t1 19.5q0 11 0.5 23t1.5 18q2 9 -2 21.5t-7 13.5
q-1 1 -3.5 0.5t-4.5 -0.5q-6 2 -13 2.5t-11 -0.5q-8 -2 -12.5 -3.5t-11.5 -4.5z" />
    <glyph glyph-name="r" unicode="r" horiz-adv-x="382" 
d="M27 644q8 2 21 1t21 -3q9 -2 18 -1t17 1t15 -1.5t11 -7.5q1 -2 1.5 -5.5t2.5 -4.5q3 -2 9 0.5t10 3.5q2 0 5.5 -0.5t5.5 0.5q8 1 14.5 2.5t13.5 2.5q3 1 6 0.5t5 -0.5q4 2 5 2q9 2 19 1t20 1q2 0 5 3q4 0 8 -0.5t8 0.5q6 1 10 1t12 -1q5 -2 11 -0.5t10 0.5l5 -3
q9 -2 13.5 -2t6.5 -9q0 -2 1 -3t1 -3q1 -3 -0.5 -5.5t-1.5 -5.5q0 -4 3 -8.5t1 -12.5q-1 -5 -2 -9.5t-2 -7.5q-2 -7 0 -17t0 -18q-1 -2 -2 -6t-3 -5q-3 -1 -7 0t-8 0l-4 -2q-9 -2 -23.5 -1t-23.5 -1q-5 -1 -9.5 0t-8.5 0q-2 0 -2.5 -1t-2.5 -1q-3 -1 -6 0t-5 0
q-11 -2 -21 -4t-21 -4q-2 0 -6 -2.5t-8 -3.5q-10 -2 -23.5 -4.5t-21.5 -7.5q-3 -2 -5 -7.5t-4 -9.5q-2 -13 -0.5 -26t-0.5 -24q-3 -12 -1.5 -27.5t1.5 -31.5q0 -15 -1 -31t1 -28v-9q-2 -6 -1 -16t2 -15q2 -8 0 -17.5t0 -17.5l3 -6q1 -5 0 -10.5t0 -10.5q1 -7 1.5 -13
t2.5 -13q0 -3 -0.5 -6.5t0.5 -6.5q0 -3 1.5 -6t1.5 -6q2 -9 1 -19t1 -18l7 -26v-8t1 -6q2 -3 1.5 -7.5t0.5 -9.5q1 -3 2.5 -5.5t2.5 -4.5q0 -2 -1 -3t-1 -3q0 -4 2 -7.5t3 -8.5q3 -14 -4 -19t-18 -7q-4 -1 -7.5 0t-7.5 0l-8 -4q-2 -1 -5 0t-5 0q-4 -1 -7 -2t-8 -2
q-7 -2 -14 -2t-15 -2l-6 -2t-6 0q-5 2 -7 9t-4 15q0 3 -1.5 5.5t-2.5 4.5q-1 4 0 8t0 8q-1 5 -2.5 9t-3.5 9q-1 7 -0.5 14.5t-0.5 14.5l-3 5q-1 3 0 6t0 5l-4 17q0 2 0.5 4.5t-0.5 4.5q-2 15 -2.5 30t-2.5 29l-3 6q-1 5 0 10t0 10q-1 4 -1 4.5t1 4.5q3 15 0 30t-5 27
q-2 8 -1 17.5t1 18.5v70q0 9 -1 18.5t1 16.5q1 5 2.5 13t0.5 13t-3 13.5t0 18.5q3 19 2.5 39t2.5 38q1 3 0.5 6t-0.5 6q1 3 2.5 8.5t0.5 10.5q-2 4 -2 5q0 2 1.5 7.5t2.5 9.5q2 11 1 22t8 13q3 2 5 1.5t5 0.5z" />
    <glyph glyph-name="s" unicode="s" horiz-adv-x="455" 
d="M185 642q14 2 31.5 -0.5l31.5 -4.5q2 -1 3.5 -0.5t3.5 0.5q9 -2 18.5 -6t17.5 -8q14 -8 29 -17t23 -22l11 -16l3 -4.5l3 -4.5q3 -5 6.5 -8.5t5.5 -6.5v-5q1 -2 2.5 -4.5t3.5 -5.5l2 -8q1 -3 2.5 -5.5t3.5 -6.5v-4q2 -7 5 -14.5t4 -12.5q2 -5 1.5 -9t1.5 -8q0 -1 2 -3
l3 -26q2 -6 0.5 -11.5t-0.5 -10.5q2 -9 2.5 -22t-8.5 -15q-2 -1 -5 0t-7 0q-1 0 -1.5 -1t-1.5 -1q-4 -1 -7.5 0t-7.5 0q-1 0 -1.5 -1t-1.5 -1q-5 -1 -10.5 0t-10.5 0q-1 0 -3 -2q-5 -2 -11 -0.5t-11 0.5q-2 0 -4 -1.5t-7 -0.5q-2 1 -6 2t-5 3q-3 2 -3 6.5t-1 8.5
q-1 3 -2.5 6t-2.5 6q-1 6 -0.5 13t-1.5 12q-1 4 -2.5 7t-2.5 7q-2 11 -5 20.5t-8 17.5t-12 17t-15 15q-5 4 -12 7.5t-12 4.5q-2 1 -4 0.5t-4 -0.5q-5 2 -13 2t-16 -2q-3 0 -5 -1.5t-5 -2.5q-11 -2 -20 -11t-14 -18q-2 -3 -4.5 -7t-4.5 -8q-2 -5 -4.5 -14.5t-0.5 -17.5l3 -5
q0 -2 -0.5 -4t0.5 -4q2 -14 12 -27t23 -22q4 -3 6.5 -6.5t7.5 -6.5q29 -20 65.5 -35.5t66.5 -36.5q2 -2 2.5 -3.5t2.5 -2.5q11 -6 21 -15.5t17 -19.5l9 -11q3 -5 6.5 -11t4.5 -10q0 -2 -0.5 -3.5t0.5 -3.5q0 -2 1.5 -3.5t2.5 -3.5q0 -2 -0.5 -3t0.5 -3q0 -2 1 -3t1 -2
q1 -3 0 -6t0 -6q2 -7 3 -24t-1 -28q-1 -3 -1 -3.5t1 -4.5q0 -2 -0.5 -3.5t-1.5 -3.5q-1 -3 -0.5 -5t-0.5 -4q0 -2 -1.5 -3t-1.5 -3q-1 -2 -0.5 -4.5t0.5 -5.5q-2 -5 -5 -10.5t-5 -10.5t-3.5 -10t-4.5 -10q-5 -6 -13 -15.5t-15 -14.5q-11 -8 -24 -13.5t-28 -10.5
q-4 -2 -7.5 -3.5t-7.5 -2.5t-6.5 0t-5.5 0q-2 0 -2.5 -1t-1.5 -1q-2 -1 -5 0t-5 0q-2 0 -2 -1t-2 -1q-3 -1 -7.5 0t-8.5 0q-6 -2 -18.5 -2t-20.5 2q-5 2 -10 0.5t-10 -0.5l-17 4q-3 1 -6 0t-6 0q-6 1 -11.5 4.5t-11.5 5.5q-65 24 -85 94l-2 8q0 2 -1.5 3.5t-2.5 3.5l-3 22
l-3 5q-2 8 -1 17.5t-1 19.5q0 2 -0.5 5.5t-1.5 8.5q0 -1 -2 5q0 4 3 11.5t7 9.5q5 2 12 1.5t14 0.5q5 2 18 3t23 -1l4 -2q4 -1 8.5 0t6.5 0q9 -2 16 -4t9 -12q0 -2 -1 -5.5t1 -6.5q0 -2 1 -3.5t0 -4.5q0 -4 -0.5 -4.5t0.5 -4.5q2 -3 1.5 -6t0.5 -6q5 -18 18.5 -31t32.5 -21
q5 -2 17 -2.5t19 0.5q8 2 17 6.5t16 9.5q5 4 11 12.5t4 18.5q-2 8 -9.5 19t-15.5 16l-10 8t-11 8q-2 1 -4 1t-4 2l-30 19q-6 4 -13.5 6t-13.5 6l-3 4q-4 2 -7.5 3.5t-6.5 3.5q-2 1 -2 1.5t-1 1.5q-8 5 -14 7t-14 7l-26 19q-2 2 -4 3.5t-5 3.5q-15 11 -29 31.5t-22 40.5
q-2 5 -4 11.5t-4 12.5q-2 8 -3 16t-3 15q0 2 0.5 5t-0.5 5q0 2 -1.5 6.5t0.5 9.5q2 8 2 15.5t1 12.5q2 5 0.5 10t-0.5 10q2 8 4 15.5t5 16.5q2 7 6 16.5t8 15.5q13 20 29 36q8 8 16.5 14.5t17.5 12.5q8 5 17.5 8t18.5 6q3 2 7 3.5t9 3.5q2 0 5.5 -0.5t6.5 0.5q1 0 1.5 0.5
t1.5 0.5q8 2 17 2t16 2z" />
    <glyph glyph-name="t" unicode="t" horiz-adv-x="442" 
d="M161 757q6 2 16.5 1t15.5 -3q12 -2 24 0t17 -6q2 -4 2 -9t1 -10q2 -8 2 -17.5t2 -18.5q0 -3 -0.5 -6t0.5 -5q0 -2 1 -3.5t1 -3.5q0 -5 -3 -11t-1 -14q0 -3 2 -10t4 -8q2 -2 8 -1t8 1h45q15 0 32 1t28 -1l6 -3q2 0 4 0.5t4 -0.5q6 -1 9 -6.5t5 -13.5q1 -5 -0.5 -9.5
t-1.5 -7.5q-2 -5 -1 -11.5t1 -12.5t-0.5 -12.5t0.5 -11.5q0 -3 1.5 -7.5t0.5 -9.5q-1 -2 -3 -7.5t-4 -6.5q-7 -2 -18.5 0t-19.5 0q-2 0 -3 -1t-3 -1q-4 -1 -7.5 0t-7.5 0q-3 -1 -9.5 -2t-12.5 0q-12 3 -24 0q-6 -1 -11.5 0.5t-10.5 -0.5q-2 -1 -1.5 -2t-1.5 -2t-5.5 0
t-5.5 -1q-1 -1 0 -4t1 -5q-2 -16 -2 -35t0.5 -39.5t0.5 -39.5t-3 -35q-2 -6 -2 -8q0 -3 1 -4.5t1 -3.5q0 -3 -2 -8t0 -12q0 -2 1 -3t1 -2q2 -7 1.5 -17t-1.5 -15q0 -2 -1 -3.5t-1 -2.5q0 -2 1 -4t1 -4t-1 -3t-1 -3q-2 -5 -0.5 -14t0.5 -17q-3 -9 0 -18q2 -17 -1 -34t1 -35
q0 -1 1 -2t1 -3q2 -11 1 -23t1 -23l4 -21q1 -4 0 -7.5t0 -7.5q0 -4 1.5 -7t1.5 -6q1 -2 0.5 -5t-0.5 -6q1 -4 2.5 -7.5t0.5 -8.5t-3 -8.5t-7 -4.5q-4 -1 -8 0t-8 0q-2 0 -2.5 -1t-2.5 -1q-2 -1 -5 0t-6 0q-1 0 -2 -1t-2 -1q-5 -1 -11 -0.5t-12 -1.5q-2 0 -3 -1t-3 -1l-22 -2
q-8 -2 -13.5 -1.5t-9.5 8.5q-2 3 -2 6t-1 8l-5 27q-2 6 -1.5 12t-0.5 11l-3 6q0 2 0.5 4.5t-0.5 5.5q-2 12 -2.5 25t-2.5 26q-2 8 -0.5 16t0.5 16q-1 5 -2.5 9.5t-1.5 7.5q0 1 2 5q2 17 1 33.5t-1 36.5q0 6 -1 12.5t1 11.5q0 1 2 5q0 3 -0.5 8t0.5 9q1 11 0 25
q-2 12 -0.5 22.5t3.5 22.5q2 5 1 10l-2 10q-1 2 -0.5 4t0.5 4q-1 4 -1.5 9t1.5 12q0 3 1 8.5t2 9.5q2 8 -1.5 17.5t-1.5 20.5q1 5 1.5 18.5t-4.5 16.5q-2 1 -4 0.5t-4 -0.5q-7 2 -17 2t-17 -2q-6 -1 -15.5 0.5t-17.5 -0.5q-10 -2 -22 -2t-15 8q-4 8 -3.5 23t-1.5 27
q0 4 -1 12.5t-1 18t0.5 17.5t3.5 11q7 6 20.5 4.5t25.5 0.5t22.5 1t22.5 1q9 2 15 4t8 10q1 5 0.5 12.5t-0.5 14.5q0 17 -1 27.5t-1 27.5q0 14 1 22.5t13 10.5q7 2 18 1t16 1z" />
    <glyph glyph-name="u" unicode="u" horiz-adv-x="452" 
d="M342 637q8 2 17 -0.5t11 -8.5q0 -2 -0.5 -4t0.5 -4q0 -4 1.5 -7t2.5 -8t-0.5 -11t0.5 -11q0 -1 2 -11l4 -16q0 -3 -1 -4.5t-1 -3.5t2 -4q0 -3 -0.5 -6.5t0.5 -5.5q0 -1 0.5 -1.5t0.5 -2.5q2 -5 0.5 -9.5t-0.5 -9.5q1 -2 2 -3t1 -2q2 -11 1 -22.5t1 -22.5q2 -17 1.5 -33.5
t2.5 -30.5q2 -7 1 -17.5t-1 -19.5v-22t-2 -19q-2 -9 -2 -18.5t-2 -19.5q-1 -5 0 -9.5t0 -9.5l-3 -4q0 -3 0.5 -5.5t-0.5 -4.5q0 -5 -1 -8.5t-2 -8.5q-1 -2 -0.5 -5t0.5 -6q-2 -5 -3.5 -10t-2.5 -10q-1 -2 0 -4.5t0 -4.5q-2 -6 -2 -11q-2 -7 -4 -13.5t-4 -14.5
q-1 -4 -2.5 -8.5t-3.5 -9.5l-6 -18q-1 -3 -3 -6t-3 -5v-6l-2 -4t-2 -5q-2 -4 -5.5 -8.5t-5.5 -9.5q-2 -2 -2 -3.5t-1 -3.5q-5 -6 -9.5 -11t-8.5 -11q-3 -4 -10.5 -11.5t-11.5 -10.5q-8 -6 -18.5 -12t-20.5 -10q-3 -2 -6.5 -2t-6.5 -2t-6 -3.5t-8 -2.5q-2 -1 -6 0t-7 0
q-4 -2 -5 -2q-3 -1 -6.5 0t-6.5 0q-18 -3 -34 0q-8 2 -14.5 1t-14.5 1q-4 1 -7 2.5l-7 3.5q-17 6 -33.5 16t-26.5 24q-3 4 -5.5 9t-5.5 10q-2 5 -6 8.5t-6 8.5l-8 26q0 2 -1.5 3.5t-2.5 3.5q-1 3 -0.5 6t-0.5 6q-2 5 -4 9.5t-3 9.5q0 2 0.5 3.5t-0.5 3.5q-2 8 -2.5 18
t-2.5 19l-3 6q-1 5 0 10t0 11l-2 4q-1 5 0 10.5t0 10.5q0 1 -2 5q-1 5 0 9t0 8q-1 6 -2 9.5t1 8.5q4 20 2.5 49t-1.5 52q0 8 1 16.5t-1 15.5q0 1 -0.5 2t-0.5 2q-1 2 0.5 6.5t2.5 9.5q2 5 0.5 11t-0.5 11q2 2 2 4q2 5 0.5 9.5t-0.5 9.5l3 5l3 26q2 3 1 6.5t-1 6.5q2 4 2 5
q1 4 0 7.5t0 7.5l4 14q1 5 0 9.5t0 8.5t4 11t5 9q6 6 16 4.5t19 -3.5q3 -1 5.5 -0.5t4.5 0.5q3 -1 6.5 -2t8.5 -2q2 -1 3.5 -0.5t3.5 0.5l14 -4q8 -2 15.5 -2.5t9.5 -7.5q1 -2 -0.5 -6.5t-1.5 -8.5q-2 -5 -0.5 -10.5t0.5 -10.5q-2 -2 -2 -4q-1 -3 -0.5 -6.5t0.5 -5.5
q-2 -2 -2 -4q-1 -4 0 -8t0 -6l-3 -5q0 -2 0.5 -5t-0.5 -6q0 -1 -0.5 -2t-0.5 -2q-1 -2 0.5 -3.5t0.5 -3.5q0 -2 -0.5 -3t-0.5 -3q-1 -2 -0.5 -4.5t0.5 -4.5l-2 -4q-2 -5 -0.5 -10.5t0.5 -10.5q-2 -11 -3 -25t-3 -27q-2 -11 0 -22.5t0 -22.5l-3 -5q-1 -8 -1 -21t1 -21
q1 -2 2 -3t1 -3q1 -4 -0.5 -9t0.5 -10q2 -7 2 -18t2 -20q0 -2 1.5 -7.5t2.5 -8.5q0 -2 -0.5 -6t0.5 -7q1 -6 2.5 -13t3.5 -15q1 -5 2.5 -8.5t2.5 -8.5q2 -6 9.5 -18t12.5 -16q6 -5 14.5 -8t20.5 -1q5 1 11.5 5t11.5 7q8 5 15 14.5t12 17.5l2 8q1 6 5 12.5t6 14.5t3.5 16
t3.5 16q0 3 1.5 6t2.5 6q1 8 1 15.5t2 15.5l3 5q2 10 0.5 22t1.5 23q0 2 2 4q1 7 -0.5 16.5t0.5 17.5t1.5 22.5t-0.5 28.5q0 11 1 23t-1 23t-0.5 24t-0.5 23q-2 2 -2 4q-2 5 -0.5 11t0.5 11q-1 3 -2.5 6.5t-2.5 6.5q-2 8 0 15.5t0 15.5q0 2 -2 4q-2 8 -1 16t0 16
q-2 8 -2 17.5t6 12.5q4 2 9 1.5t10 0.5l5 3q3 0 6 -0.5t6 0.5q1 0 1.5 0.5t2.5 0.5q9 2 19.5 1t16.5 1z" />
    <glyph glyph-name="v" unicode="v" horiz-adv-x="484" 
d="M317 643q4 2 9 0.5t7 -2.5t5.5 0t6.5 0q5 -1 11 -3.5t13 -4.5q8 -1 18 -4q2 0 5 -1.5l5 -2.5q8 -2 15 -3.5t11 -4.5q1 -1 3.5 -5t2.5 -6q1 -4 -0.5 -8t-3.5 -9q0 -2 0.5 -4t-0.5 -4q-1 -5 -3 -8t-3 -8q-2 -6 -1 -11t-1 -11q-1 -4 -2.5 -7.5t-2.5 -7.5q-1 -2 -0.5 -4.5
t0.5 -4.5l-7 -25q-1 -8 -4.5 -14.5t-5.5 -13.5q0 -2 0.5 -3t-0.5 -3q0 -3 -1.5 -5.5t-1.5 -4.5q-2 -8 -3 -16t-3 -16l-2.5 -5t-1.5 -5q-2 -5 -1.5 -7t-0.5 -7q-2 -5 -4 -10.5t-4 -10.5q-2 -3 -2 -7t-2 -8q-1 -2 -1 -4t-1 -5q-1 -2 -2 -3.5t-2 -3.5q-2 -10 -2 -11l-14 -49
l-12 -35q-2 -5 -4 -10.5t-4 -10.5l-4 -17q-2 -4 -4 -7.5t-4 -7.5q-3 -11 -7 -21t-7 -22q-2 -5 -5 -10t-4 -10q-2 -8 -4.5 -14.5t-5.5 -14.5t-7.5 -14t-6.5 -12q-1 -2 -0.5 -3t-0.5 -3q-1 -3 -2 -4t-3 -4t-6 -10.5t-4 -10.5q-2 -8 0.5 -13.5t-0.5 -11.5q-4 -7 -11 -11
q-8 -6 -20 -10.5t-20 -9.5q-5 -3 -10.5 -6t-12.5 -6q-5 -2 -11 -5t-14 -1q-2 1 -6 6.5t-6 10.5q-1 4 -4 7.5t-5 7.5q-3 5 -5.5 11t-6.5 11q-6 9 -9.5 19t-8.5 19q-5 11 -11.5 22t-10.5 20q-2 6 -5 11.5t-5 10.5l-2 9q-4 10 -9 19.5t-9 19.5q-2 4 -2 7.5t-2 7.5q-2 5 -5 10.5
t-5 10.5t-3 10.5t-3 10.5t-3 9.5t-3 11.5q-2 11 -6 19t-6 19q0 2 0.5 3t-0.5 3q0 2 -1.5 6t-1.5 5q-2 5 -1.5 8.5t-0.5 8.5q-1 2 -2.5 5.5t-2.5 7.5q0 2 0.5 6t-0.5 7q-2 11 -2 29.5v33.5q0 28 1 47t1 43q0 7 1 13.5t-1 11.5q-1 7 -0.5 12.5t-1.5 11.5q0 1 -0.5 2t-0.5 2
q-1 3 1.5 9t5.5 8q7 3 17 2.5t18 1.5q1 0 1.5 0.5t1.5 0.5q6 2 12 1.5t13 0.5l3 3q3 1 6 0t6 0q6 1 11.5 1.5t10.5 -2.5q6 -3 8.5 -13l4.5 -18q1 -5 -0.5 -10.5t0.5 -10.5q1 -5 3 -11.5t0 -14.5q-1 -5 -2 -10.5t1 -10.5q0 -2 0.5 -7.5t-0.5 -10.5q-2 -4 -2 -5q-1 -3 1 -6.5
t1 -8.5q-1 -2 -1.5 -2t-0.5 -2q-2 -4 -1 -10.5t1 -13.5q0 -6 -1 -12t1 -11q0 -1 2 -3q2 -8 1 -15.5t-1 -13.5q0 -2 1.5 -4.5t2.5 -5.5q0 -2 -0.5 -4t0.5 -4q0 -2 1.5 -5l2.5 -5q0 -2 -0.5 -4t0.5 -4q1 -5 3 -8.5t2 -6.5q4 -24 12 -45q2 -5 4 -11.5t4 -11.5q3 -8 7.5 -14
t6.5 -13q1 -4 3 -9.5t4 -9t4.5 -3.5t5.5 7v1v1q1 4 4 7.5t4 7.5t2 6l2 4q4 10 7 20.5t7 21.5q0 1 1 1l1 1q4 11 7.5 21.5t6.5 22.5q4 14 9 28t9 30v4q0 2 1.5 4.5t2.5 4.5q2 5 2.5 10.5t2.5 10.5q2 3 2.5 7.5t2.5 10.5q2 11 6 19.5t6 19.5q1 5 0.5 8t1.5 8q1 8 4.5 15
t5.5 15q0 2 -0.5 3t0.5 3q1 7 3 13.5t4 13.5q1 2 0.5 3t-0.5 3q0 1 3 4q1 4 0.5 8t0.5 8q3 9 4 20l4 9q1 2 0 4.5t0 4.5q0 1 1 1.5t1 2.5q3 11 4.5 21t9.5 13z" />
    <glyph glyph-name="w" unicode="w" horiz-adv-x="685" 
d="M289 629q2 0 3 -0.5t4 -0.5q3 -1 10 -1.5t15 -0.5t15 0.5t11 1.5q4 0 6.5 0.5t8.5 -0.5q10 -4 12 -13q0 -2 -0.5 -3.5t0.5 -3.5l2 -12q0 -3 1.5 -5.5t2.5 -4.5q0 -3 -0.5 -5.5t0.5 -4.5q0 -2 2 -12q0 -3 2 -6t2 -6q0 -2 -1 -3t-1 -3q0 -4 2.5 -9t3.5 -9q2 -7 1 -16t1 -17
q0 -2 2 -4q1 -5 0.5 -10t0.5 -10l3 -5q2 -11 2 -22.5t2 -22.5q0 -2 2 -4q0 -3 -0.5 -5.5t0.5 -4.5l3 -23l3 -5q2 -8 1 -16t1 -16q1 -8 2 -15.5t3 -15.5t1 -16t1 -16l3 -4q0 -2 -0.5 -4t0.5 -4q1 -6 2.5 -12.5t2.5 -13.5q1 -3 0.5 -6t-0.5 -6q0 -2 1 -6.5t2.5 -9t3 -6.5
t4.5 2q1 2 3 6.5t3 8.5l2 15q2 11 6 21.5t6 24.5q1 2 1 4t1 6t3 8t3 9l2 16l4 12q1 2 0.5 3t-0.5 3l4 12q0 2 -0.5 4.5t0.5 5.5q1 5 3 9.5t3 8.5q2 5 1.5 10t0.5 10l2.5 12.5t3.5 14.5l4 15q2 5 1.5 9.5t0.5 9.5q2 8 3 18t3 20l4 16q2 6 1 11t1 11q0 1 2 3q1 5 -0.5 10
t0.5 10q2 11 2.5 27t10.5 21q4 2 17.5 3t19.5 -1q2 0 4 -2q8 -1 17 0.5t17 -0.5q2 0 2 -0.5t2 -0.5q7 -2 17.5 -1t12.5 -7q2 -4 1.5 -12t-1.5 -13q-1 -4 0 -9q0 -2 -0.5 -3.5t-1.5 -5.5q-1 -5 0.5 -10.5t-0.5 -10.5l-6 -28q-1 -6 0.5 -11.5t-0.5 -10.5q0 -2 -1 -2.5t-1 -1.5
q-2 -5 -1.5 -10t-0.5 -10q-2 -5 -2 -10.5t-2 -12.5q-1 -4 -1 -4.5t1 -4.5q1 -5 -2 -11t-4 -11l-2 -20l-4 -15q-2 -7 -1 -12.5t-1 -13.5l-4 -12q-1 -2 -0.5 -4t0.5 -4q-1 -5 -3 -9t-3 -9q0 -3 0.5 -6t-0.5 -6l-4 -12q0 -2 0.5 -3.5t-0.5 -3.5q-1 -5 -3 -9t-3 -9l-2 -18
q-1 -8 -4.5 -16t-5.5 -16q0 -2 0.5 -4t-0.5 -4q0 -2 -1.5 -3t-2.5 -2q-1 -4 -0.5 -9t-0.5 -10q-2 -4 -4 -8.5t-3 -7.5q0 -1 0.5 -2.5t-0.5 -3.5q0 -3 -2 -7t-3 -8q-4 -17 -9.5 -34t-8.5 -34q-2 -5 -4.5 -10t-4.5 -10l-3 -15q-2 -4 -4 -8.5t-3 -9.5q0 -3 -2 -6t-3 -6
q-2 -7 -4.5 -12t-9.5 -7q-10 -2 -26 0t-28 4q-5 1 -10 0t-9 0q-2 0 -3 1t-2 1q-8 2 -17.5 1t-14.5 3q-2 3 -2.5 8.5t-1.5 10.5q-2 8 -13.5 5t-21.5 0q-8 2 -10.5 11t-4.5 19l-4 9q-1 5 -0.5 9.5t-1.5 9.5q0 2 -1.5 3.5t-2.5 3.5l-2 14q-1 5 -3 9t-3 9l-4 28q-1 5 -3.5 12
t-4.5 13q-1 7 -3 11l-1.5 3t-2.5 -3q-2 -3 -3 -6.5t-3 -7.5q-5 -15 -12.5 -28.5t-13.5 -28.5l-7 -21q-5 -12 -11 -21.5t-9 -20.5q-2 -4 -4 -7t-4 -7t-2 -7.5t-2 -6.5q-2 -4 -7.5 -8t-9.5 -5q-6 -2 -12 0t-11 0q-1 0 -1.5 -1t-2.5 -1q-5 -1 -10.5 0.5t-10.5 -0.5
q-7 -1 -15.5 -2.5t-16.5 0.5q-2 0 -2.5 1t-2.5 1q-8 2 -15 -1t-17 -1q-3 1 -9.5 3t-8.5 5q-2 5 -5 14t-5 14l-2 12q-2 5 -4 9.5t-4 9.5l-2 15q-1 5 -3 9t-3 8q0 2 0.5 4t-0.5 4q-1 7 -3.5 13t-4.5 13l-4 20q0 2 0.5 4.5t-0.5 5.5q0 3 -1.5 6t-2.5 7q0 2 0.5 4.5t-0.5 4.5
q0 1 -1 2t-1 2q0 2 0.5 4.5t-0.5 5.5q-1 5 -2.5 10.5t-3.5 10.5q-1 5 0.5 11t-0.5 11q0 2 -2 4q-1 5 -0.5 10t-0.5 10q-1 2 -2 2.5t-1 2.5q-1 5 0.5 10.5t-0.5 10.5l-6 27q-1 5 0.5 11t-0.5 11q0 2 -0.5 2.5t-0.5 1.5q-3 10 -0.5 22t0.5 24q-2 2 -2 4q-2 5 -0.5 10t0.5 10
l-3 5q-2 11 -1 23.5t-1 25.5q0 1 -2 3q-1 5 0 9.5t0 9.5q0 1 -0.5 1.5t-0.5 1.5q-2 8 -1 20t1 23t-1 23t1 19q1 5 4 6.5t9 3.5q7 1 21 2.5t24 -0.5q4 -1 13 -2.5t16 0.5q3 0 4.5 1t3.5 1q4 -1 11 -2.5t9 -4.5q2 -2 2 -6.5t1 -8.5t1 -5t-1 -6q-1 -4 0 -10t2 -9
q1 -5 -0.5 -10.5t0.5 -9.5q0 -2 1.5 -7t0.5 -10q-2 -2 -2 -3q-1 -3 0 -4.5t2 -4.5q2 -11 0.5 -24t0.5 -24l3 -5q2 -10 1 -21t1 -22q0 -3 1.5 -8t2.5 -8q0 -3 -1 -4.5t-1 -3.5l2 -4q0 -2 -0.5 -5t0.5 -5q0 -1 0.5 -1.5t0.5 -1.5q2 -8 1 -17.5t1 -16.5l3 -5q0 -2 -0.5 -4.5
t0.5 -4.5q0 -4 1.5 -7t2.5 -7q0 -3 -0.5 -6t0.5 -6q0 -1 0.5 -1.5t0.5 -2.5q2 -3 0.5 -7t-0.5 -7q2 -5 2 -13t2 -15l3 -5l2 -11q2 -5 3 -12.5t3 -7.5q2 -1 5.5 6l4.5 9l18 48q3 8 5 16.5t5 16.5t5.5 15.5t4.5 16.5q2 10 7 19.5t7 18.5l6 29l4 9v6q2 12 6 21.5t6 20.5
q0 2 -0.5 4t0.5 4q1 5 3 9t3 9t0.5 9t1.5 9q0 3 1.5 6t1.5 6q1 3 0.5 6t-0.5 6q2 4 2.5 9t2.5 11l4 17q0 3 -0.5 6.5t0.5 5.5q0 2 2 4q2 9 1.5 17t1.5 16q2 6 10 8t14 3z" />
    <glyph glyph-name="x" unicode="x" horiz-adv-x="496" 
d="M336 634h4.5t4.5 -1q8 -2 19.5 -9t22.5 -13q8 -3 15.5 -6.5t13.5 -7.5l14 -10t4 -18q0 -2 -2.5 -5t-3.5 -6q-1 -5 -2.5 -7.5t-3.5 -7.5q-2 -6 -6 -13.5t-9 -14.5q-3 -5 -4.5 -9.5t-4.5 -9.5l-3 -3q-7 -11 -11.5 -21t-9.5 -18q-2 -5 -5.5 -9t-7.5 -9q-1 -2 -1 -4t-1 -3
t-2.5 -1t-1.5 -1q-1 -2 0 -3t0 -3t-3.5 -5t-4.5 -5l-2 -6l-8 -9q-2 -3 -2 -6t-2 -5q-2 -4 -5 -7t-5 -6t-3 -6.5t-3 -6.5q-4 -7 -8.5 -13t-8.5 -11q-4 -6 -6.5 -12t-6.5 -11q-1 -2 -2 -2.5t-1 -1.5q-7 -10 -0.5 -20t11.5 -17q3 -4 4.5 -8.5t4.5 -9.5l7 -12q7 -11 12.5 -21.5
t12.5 -20.5q5 -8 11 -16t11 -17q2 -3 4 -5.5t4 -6.5q2 -2 2.5 -5t2.5 -5q2 -3 4.5 -5t4.5 -5t3.5 -6t3.5 -6q7 -11 16 -22t16 -22q3 -6 8 -12.5t1 -17.5q-1 -2 -4.5 -4.5t-6.5 -4.5q-4 -3 -8 -8t-9 -8l-13 -9q-2 -1 -3.5 -3t-3.5 -4q-5 -4 -12.5 -8t-13.5 -8q-2 -1 -3 -3
t-3 -3t-8 -1t-9 1q-4 2 -7 7.5t-6 9.5q-4 6 -8.5 12t-9.5 12q-4 5 -8 9.5t-7 9.5l-38 58q-5 7 -8 15t-8 15q-4 5 -7 10t-5 10q-1 1 -5 7q-2 3 -5 6q-2 0 -3 -2.5t-2 -4.5q-2 -2 -4 -3.5t-4 -3.5q-2 -5 -3.5 -10t-4.5 -9q-3 -5 -6.5 -9.5t-7.5 -9.5q-5 -8 -9 -17.5t-9 -17.5
q-4 -6 -8.5 -12t-8.5 -13q-3 -4 -4.5 -9t-4.5 -10l-3 -4.5t-3 -6.5q-1 -3 -2.5 -4.5t-2.5 -3.5t-0.5 -3t0.5 -2q-1 -2 -2.5 -3t-3.5 -3q-1 -1 -0.5 -2t-0.5 -2q-3 -5 -8.5 -5t-11.5 2t-11.5 5t-9.5 4q-11 2 -24 9.5t-24 12.5q-2 1 -3.5 0.5t-3.5 1.5q-6 4 -11.5 7.5
t-3.5 14.5q1 6 4.5 12t5.5 11q2 7 5 13t8 12q3 5 5 11.5t5 11.5l10 13q2 4 4 8.5t4 8.5q1 2 2 2t2 1q3 5 5 11.5t5 11.5q7 10 13.5 22t13.5 23q2 2 3.5 6t3.5 8q3 8 6.5 14.5t7.5 13.5l6 13q3 8 6.5 18t-1.5 21t-10.5 22.5t-10.5 23.5q-2 5 -5 8.5t-5 7.5q-3 9 -7 14.5
t-7 14.5q-2 5 -4 8l-4 6l-2 8q-1 3 -2.5 4.5l-3.5 3.5q-5 8 -8 17t-8 17q-5 10 -9.5 19.5t-8.5 18.5q-4 10 -9.5 18t-8.5 19q-1 5 -3.5 9t-4.5 9q-2 10 -1 15t9 10q11 8 27.5 13t31.5 10q5 2 11.5 5.5t12.5 4.5q15 3 21.5 -10t10.5 -24t9.5 -19t7.5 -19q2 -5 5 -10t5 -10
q4 -7 7 -14.5t7 -13.5q11 -15 16 -31q2 -3 3.5 -5.5t2.5 -6.5q5 -14 12 -24q1 -2 2 -2.5t2 -1.5q1 -2 0 -3t1 -2q1 -1 3.5 1.5l5.5 5.5l7 7q2 2 3 6t3 7t5 6t5 7l2 7q2 2 3.5 4t3.5 5q5 8 9 18t10 18l6 10q4 6 7 13t7 13q6 9 10.5 18t10.5 19q3 4 5.5 11t5.5 13t7 11t10 5z
" />
    <glyph glyph-name="y" unicode="y" horiz-adv-x="500" 
d="M377 639q5 1 9.5 0t9.5 -2t10.5 -4.5t12.5 -5.5t12.5 -4t11.5 -4q11 -4 23 -7t14 -14q1 -5 0 -7t-2 -6q-2 -8 -6 -15.5t-6 -15.5l-6 -23q-2 -8 -6.5 -17t-7.5 -18l-6 -17l-10 -36q-1 -5 -3.5 -9t-4.5 -9q-2 -10 -4 -15l-10 -28q0 -2 -1 -3.5t-2 -3.5l-2 -9q-2 -5 -4 -9
t-4 -9l-12 -33l-2 -7q-2 -5 -5 -10t-5 -10q-3 -8 -5.5 -15t-4.5 -14q-2 -4 -3 -6.5l-3 -7.5t-4 -8.5t-4 -8.5l-4 -10v-3q-2 -3 -2.5 -3t-1.5 -5q-1 -2 -2 -3.5t-2 -3.5t-1 -5t-1 -5t-3 -3.5t-3 -4.5v-3q-1 -4 -4.5 -7.5t-5.5 -8.5l-3 -7.5l-3 -7.5q-1 -3 -2.5 -5t-3.5 -4
q-1 -2 -0.5 -4t-1.5 -4l-3 -4.5t-3 -6.5q-1 -5 -4 -7.5t-6 -7.5q-2 -4 -4.5 -9.5t-5.5 -10.5q-1 -2 -3 -4t-2 -4q-2 -5 -4 -6.5t-4 -6.5q-2 -2 -2.5 -5t-2.5 -6l-7 -9q-3 -5 -4.5 -9.5t-3.5 -9.5q-2 -2 -4 -3.5t-4 -3.5q-3 -5 -5 -10.5t-6 -10.5q-2 -4 -5.5 -7t-5.5 -7
l-2 -8l-4 -2q-2 -4 -4 -8.5t-4 -8.5l-6 -5q-5 -8 -10 -16.5t-10 -16.5q-1 -2 -2.5 -2.5t-3.5 -2.5t-2 -4.5t-2 -4.5q-5 -7 -10 -13.5t-10 -13.5q-2 -2 -2 -4.5t-2 -4.5q-1 -2 -2.5 -2t-2.5 -2q-3 -5 -5 -9.5t-6 -9.5q-3 -5 -8 -10.5t-9 -10.5q-5 -6 -7.5 -10t-13.5 -2
q-8 2 -16 8.5t-16 10.5l-29 19l-7 6q-5 3 -10.5 8t-6.5 9q-2 6 0 13t4 10q2 2 3.5 3t3.5 3q7 10 13.5 20.5t13.5 21.5q5 8 11.5 16t11.5 16l2 7l4 4l4 4l11 19q4 5 6.5 11.5t6.5 11.5q5 7 10.5 16t3.5 22l-4 9q-3 13 -6.5 25.5t-5.5 26.5q-2 6 -4.5 12.5t-3.5 11.5
q-2 9 -3 16.5t-3 16.5q-2 7 -4 13.5t-4 12.5q-1 11 -4 20q-2 8 -4 14t-4 14q0 2 0.5 4t-0.5 4q-2 5 -3 12.5t-3 12.5q0 1 -1 1t-1 1l-8 42q-1 6 -3.5 14t-4.5 14q0 2 0.5 4.5t-0.5 4.5l-6 24q-3 10 -5 22t-4 23q-3 3 -3 4q0 2 0.5 4t-0.5 4q-2 5 -4 13.5t-3 13.5l-2 14
q-2 8 -7 21.5t0 23.5q4 8 16 11t22 5q2 0 2.5 1t1.5 1q2 1 4.5 0t4.5 0q5 1 11 3.5t11 4.5t10 1t11 1q2 0 2.5 1t2.5 1t7 -1.5t6 -3.5q2 -2 2.5 -5.5t2.5 -8.5q1 -4 3 -8t2 -6q1 -2 0.5 -4t-0.5 -4q1 -4 3.5 -7t3.5 -8q0 -2 -0.5 -4t0.5 -4q0 -2 1 -6.5t2 -6.5
q2 -5 2.5 -9.5t2.5 -9.5q1 -4 2.5 -7.5t2.5 -7.5q2 -7 2 -13.5t2 -14.5q1 -3 2.5 -5.5t2.5 -4.5q1 -5 0.5 -9.5t0.5 -9.5l4 -10l2 -13q2 -7 2.5 -11.5t1.5 -12.5q1 -5 3 -8t3 -7q1 -5 0.5 -9t1.5 -9q1 -3 1.5 -5.5t0.5 -5.5q2 -4 3.5 -7.5t2.5 -7.5q1 -2 0.5 -5t-0.5 -6
l4 -11q0 -2 -0.5 -3.5t0.5 -3.5q1 -3 3 -6.5t3 -8.5q1 -2 0 -4.5t0 -4.5t1 -4t1 -6q1 -3 4 -8t4 -8v-3v-2q0 -1 2 0.5t4 3.5q5 5 7 12t6 12q2 2 4 5.5t4 8.5q0 1 2 3q3 8 6.5 16.5t7.5 16.5q2 5 4 8t4 8q3 11 7 20.5t8 21.5q4 10 8.5 19l8.5 17q7 19 13 38t12 37l12 38
q4 11 9.5 22t8.5 22q3 14 8 25.5t8 25.5l4 6q4 11 7 23t12 14z" />
    <glyph glyph-name="z" unicode="z" horiz-adv-x="500" 
d="M23 655q1 0 2.5 0.5t3.5 -0.5l37 -6q2 0 5 0.5t5 -0.5q2 0 2.5 -1t1.5 -1q3 -1 5.5 0t4.5 0l18 -4q2 0 5 0.5t5 -0.5q8 -2 19 -2.5t20 -2.5l5 -3q5 -1 11.5 -0.5t12.5 -1.5l4 -2q2 0 4.5 0.5t5.5 -0.5q7 -2 17.5 -2.5t19.5 -2.5l5 -3q5 -1 10.5 -0.5t10.5 -1.5q2 0 4 -2
q2 0 5 0.5t5 -0.5q2 0 2.5 -0.5t1.5 -0.5q8 -2 17.5 -2t17.5 -2l5 -3q6 -1 12 -0.5t12 -1.5q1 0 1.5 -0.5t1.5 -0.5q3 -2 6.5 -0.5t8.5 0.5l15 -4q8 -2 16.5 -1.5t14.5 -0.5l5 -3q6 -1 10 0t9 -1q5 -3 8 -10.5t1 -16.5q0 -2 -2.5 -5t-3.5 -6v-4q-1 -3 -3 -6.5t-3 -5.5
q-2 -5 -2 -4.5t-2 -4.5q0 -2 -2.5 -5.5t-3.5 -5.5l-2 -9q-2 -4 -4 -9t-3 -10q-2 -8 -4.5 -16.5t-5.5 -16.5q-1 -2 -2.5 -3.5t-2.5 -3.5l-3 -14q-1 -2 -2 -3.5t-2 -3.5l-5 -16q0 -2 -1.5 -3t-1.5 -3q-2 -5 -3.5 -10.5t-3.5 -10.5l-27 -78l-4 -6l-2 -10q-2 -4 -3 -7.5t-3 -8.5
t-4 -8.5t-4 -8.5q-2 -4 -2 -8t-2 -9t-5 -10t-5 -10q-2 -3 -2 -6.5t-2 -6.5l-6 -16q-2 -5 -5 -9t-5 -9q-2 -8 -4.5 -13t-5.5 -13q-2 -6 -6.5 -12.5t-6.5 -12.5q-1 -2 -0.5 -2.5t0.5 -1.5q-2 -4 -5.5 -10t4.5 -9q4 -1 16 -1.5t18 1.5q1 0 1.5 1t1.5 1q5 1 10 0t10 0t12 1.5
t13 -1.5q5 -2 10.5 -0.5t9.5 0.5q6 -2 11 -3t7 -7q0 -2 1.5 -5t2.5 -4q1 -8 -0.5 -15.5t0.5 -16.5t2.5 -17t-1.5 -14q0 -1 -0.5 -1.5t-0.5 -2.5q-1 -2 -0.5 -5t0.5 -5q-2 -2 -2 -4q-1 -4 -0.5 -6t-3.5 -4q-8 -3 -21 -0.5t-21 0.5q-2 0 -2 -1t-2 -1q-12 -3 -28 0t-30 0
q-1 0 -1.5 -1t-1.5 -1q-6 -1 -10.5 0t-9.5 0q-2 0 -3 -1t-2 -1q-6 -2 -11.5 1t-13.5 1q-1 0 -2 -1t-3 -1q-5 -2 -13 -0.5t-11 0.5q-2 -1 -1.5 -2t-0.5 -2q-2 -2 -9 -1t-10 1q-14 0 -31.5 0.5t-28.5 -2.5q-3 -1 -5.5 0t-6.5 2q-2 0 -3.5 -0.5t-3.5 0.5q-3 1 -5.5 7.5
t-3.5 10.5q-2 12 -1 26t-1 26q0 2 -1 2.5t-1 1.5q-1 2 -0.5 4.5t0.5 4.5q-2 8 -0.5 15.5t9.5 11.5q2 2 4.5 1.5t5.5 0.5q10 5 17 18.5t13 23.5l9 18q8 15 12.5 27t12.5 26l5.5 11t4.5 12q3 8 8 16.5t8 17.5l2 9q2 3 3.5 5.5t2.5 5.5l16 45l8 16q2 8 4 12l8 25q0 2 1.5 3.5
t2.5 3.5q3 8 5 15.5t5 15.5q1 2 1.5 5.5t2.5 6.5q3 9 7.5 20t7.5 22q1 2 2 6.5t0 7.5l-3 3q-2 1 -3 2t-2 1q-6 2 -14 1t-15 1q-1 0 -1.5 1t-2.5 1q-2 1 -4.5 0t-4.5 0q-2 0 -2.5 1t-2.5 1q-6 2 -11 1.5t-11 0.5q-2 2 -3 2q-2 1 -4 0.5t-4 -0.5q-2 2 -4 2q-8 2 -16 2t-16 2
q-1 0 -2 1t-2 1q-5 2 -11 1.5t-11 0.5l-4 2q-2 1 -4 0.5t-4 -0.5l-27 6q-2 1 -5 0t-5 0q-2 0 -2.5 1t-2.5 1q-5 2 -10 1.5t-10 0.5l-19 4q-11 2 -21.5 2t-13.5 8q0 1 0.5 2.5t-0.5 3.5q0 2 -0.5 2t-0.5 2q-1 3 0 4.5t1 3.5q1 3 0.5 6t-0.5 6q2 6 3.5 11t2.5 11q1 2 0.5 4
t-0.5 4l3 4q1 7 0.5 14t1.5 12q2 15 14 18z" />
    <glyph glyph-name="braceleft" unicode="{" horiz-adv-x="369" 
d="M186 790q10 2 16.5 -1.5t11.5 -9t9.5 -11.5t10.5 -9l12.5 -10t10.5 -11q8 -13 0.5 -19.5t-13.5 -15.5q-4 -6 -9 -17t-7 -19q-2 -7 -4 -13t-4 -13q-2 -6 -1.5 -9.5t-0.5 -10.5q-1 -5 -3.5 -9t-2.5 -8q0 -2 1 -2t1 -2q1 -5 -1 -7.5t-3 -7.5q-2 -5 -1 -12t-1 -14
q0 -1 -1 -1.5t-1 -2.5q-1 -2 -0.5 -4.5t0.5 -4.5q0 -1 -1 -2t-1 -2q0 -3 1.5 -4.5t0.5 -4.5q0 -1 -1 -1.5t-1 -2.5l-2 -20q0 -1 -1 -1.5t-1 -2.5t1.5 -4t0.5 -5l-4 -16q-2 -5 -1.5 -10t-0.5 -10l-8 -43q0 -2 -1 -2.5t-1 -2.5q-2 -8 -2.5 -14t-3.5 -14q-2 -5 -5 -10.5
t-5 -10.5v-3q-2 -7 -5 -9t-1 -10q3 -8 8.5 -18t7.5 -19l4 -20q2 -8 1 -17.5t1 -18.5q0 -1 1 -2t1 -2q2 -10 0 -21.5t0 -22.5q1 -2 3 -9t1 -10q-1 -4 -1 -4.5t1 -3.5q2 -5 0.5 -12t-0.5 -12q0 -2 1 -2.5t1 -1.5q1 -5 0 -9.5t0 -8.5l6 -34q1 -4 2.5 -6.5t3.5 -6.5t2 -7.5
t2 -7.5q2 -5 5.5 -10.5t6.5 -10.5q9 -12 22.5 -19.5t29.5 -14.5q15 -8 9 -21q-2 -6 -6.5 -12.5t-9.5 -13.5l-15 -20q-2 -2 -1.5 -3.5t-1.5 -3.5q-1 -2 -2.5 -2.5t-2.5 -2.5q-4 -6 -10 -9.5t-17 -1.5q-1 0 -1.5 0.5t-1.5 0.5q-3 1 -6 0.5t-6 -0.5q-8 2 -15 5t-14 5l-6 3t-7 4
q-9 5 -17.5 10.5t-14.5 13.5q-2 3 -3 6t-3 6q-4 6 -8 11.5t-6 12.5q-3 8 -4.5 14t-3.5 15q-1 2 -2.5 6.5t-1.5 7.5q-2 5 -1.5 10t-0.5 10l-4 13q-2 7 -1 15t-1 14q-2 2 -2 3q-1 4 0 7.5t0 8.5q0 1 -1 2t-1 2q-2 8 -1 17t-1 17q0 1 -1 2t-1 2q-2 5 -0.5 11t0.5 11q-2 2 -2 4
q-2 8 -1 17t-1 17q-5 20 -10.5 39t-15.5 33q-5 8 -13 15t-13 15q-2 3 -4.5 5t-4.5 4q-5 7 -7.5 12.5t-5.5 14.5q-3 10 1.5 16.5t12 11t16.5 8t15 7.5q2 2 5.5 5t5.5 5q6 9 11.5 19t10.5 22q2 4 4 8.5t4 9.5t2 10t2 10q0 2 1 2t1 2q2 8 2 15.5t2 15.5q0 2 2 4q1 5 -0.5 11
t0.5 11q0 3 1.5 6t1.5 6q1 3 0.5 6t-0.5 6q1 2 2 2.5t1 1.5q0 2 -0.5 4t0.5 4q0 2 2 4q1 5 -0.5 11t0.5 11q0 2 2 4q1 5 0.5 11t1.5 11l3 23l3 5q2 5 2 11.5t2 13.5q1 8 5 16.5t6 18.5q2 3 4 5.5t4 6.5q3 5 5 9.5t6 9.5q3 5 11 13t13 11z" />
    <glyph glyph-name="bar" unicode="|" horiz-adv-x="232" 
d="M29 830q3 1 7 0.5t8 -1.5q10 -2 26 -2t26 2q4 1 7.5 1.5t9.5 -1.5q3 -1 6.5 -8t3.5 -12q0 -3 -2 -6.5t-3 -6.5q-1 -7 -0.5 -15.5t0.5 -17.5v-163v-38t2 -33q2 -10 0.5 -21t-0.5 -21q1 -5 0 -12q-1 -8 -0.5 -16t-1.5 -16q0 -4 -0.5 -5.5t0.5 -6.5q2 -10 1 -27t-2 -25
q-4 -23 -0.5 -47t0.5 -47q-1 -4 -2 -9.5t0 -11.5v-11q-1 -5 -0.5 -9.5t0.5 -9.5q-2 -4 -2 -5q-2 -12 0 -27t0 -27q0 -1 -1 -2.5t-1 -3.5t1 -3t1 -3q-1 -7 -3.5 -13t-1.5 -13l3 -7q2 -8 2 -22.5t-2 -22.5l-3 -6q-1 -5 0 -9t0 -8l-1.5 -7.5t-0.5 -7.5q1 -3 3 -6.5t2 -7.5
q0 -2 -1 -3.5t-2 -3.5q-2 -12 -2 -26v-30v-29t2 -25l1.5 -6t-1.5 -7q0 -3 -0.5 -6t-1.5 -3q-2 -8 -14 -6.5t-22 -0.5q-7 -1 -16 -1.5t-20 -0.5t-21 -0.5t-12 6.5q-4 11 -3.5 25t-1.5 25q0 1 0.5 2.5t-0.5 3.5q0 2 -0.5 3.5t-0.5 2.5q-1 3 1 6.5t2 5.5q2 13 1 29t-1 31v35
t-2 30q-1 5 0 10t0 10q0 2 -0.5 3t-0.5 3q-2 8 0 14.5t3 13.5q2 14 1 31.5t-1 34.5v38t2 33q1 5 0 10t0 9q2 8 2 19t-2 22v8q2 13 5.5 26.5t0.5 30.5q-1 5 -2 14.5t1 16.5q0 5 1.5 8.5t1.5 8.5q0 2 -2 8q-2 9 -1 21t3 23q1 5 0 9t0 9q2 6 3 20t-1 23q-1 6 0 12q2 12 1 26
t-1 28v105v31.5t-2 27.5q-1 6 0 13.5t3 10.5q2 5 8 6.5z" />
    <glyph glyph-name="braceright" unicode="}" horiz-adv-x="369" 
d="M91 797q8 1 16.5 -5.5t13.5 -11.5t7.5 -8t6.5 -8q4 -6 7 -12.5t8 -12.5q15 -23 19 -46l1.5 -6t0.5 -4q2 -6 1 -11.5t1 -12.5q0 -2 1 -2.5t1 -1.5q2 -5 0.5 -10t-0.5 -10q1 -3 2.5 -11.5t-0.5 -14.5q0 -2 -1 -4t-1 -4t1 -2.5t1 -2.5q2 -8 0 -17.5t0 -18.5q2 -10 1 -18
t1 -16q0 -1 1 -2t1 -2q1 -2 0 -5t0 -5t1 -5t1 -7q1 -6 3.5 -11t4.5 -13v-6q2 -13 8.5 -26t13.5 -22q9 -13 20.5 -22.5t22.5 -17.5q8 -5 17 -10t11 -15q2 -6 2.5 -13t-2.5 -12q-2 -4 -6.5 -7t-6.5 -7q-5 -6 -9.5 -10t-8.5 -9t-9 -9t-7 -9q-1 -2 -0.5 -2.5t-0.5 -1.5
q-2 -2 -4.5 -4t-4.5 -4q-5 -11 -13 -20t-13 -21q-2 -5 -3 -10t-3 -11q-2 -4 -3.5 -8t-2.5 -9q-1 -3 0 -6.5t0 -7.5l-2 -4q-1 -5 0.5 -10.5t-0.5 -12.5q0 -2 -1 -2.5t-1 -2.5q-1 -4 0 -8.5t0 -9.5q-1 -6 -2 -11t0 -10q0 -2 1 -2.5t1 -1.5q0 -2 -0.5 -3l-1.5 -3q-1 -5 0 -9.5
t0 -8.5q0 -2 -1 -2.5t-1 -1.5q-1 -4 0 -8t0 -8q-5 -20 -12 -39t-18 -34l-8 -10q-2 -4 -8 -10t-10 -8q-7 -5 -13.5 -9.5t-12.5 -8.5q-2 -2 -5.5 -2.5t-6.5 -2.5q-5 -2 -9.5 -5t-6.5 -4q-4 -2 -11 -1.5t-9 1.5q-4 1 -8 7l-8 12q-5 7 -11.5 14t-11.5 15q-5 7 -9.5 17.5
t5.5 18.5q3 2 6 3t6 3q24 15 37 43q2 3 3.5 6t2.5 6l4 16q1 4 0 8.5t0 8.5q0 2 1 2.5t1 2.5q2 8 1 17.5t1 17.5q1 2 2.5 7.5t-0.5 10.5q-1 3 -2.5 8t-1.5 8q0 2 1.5 5t2.5 7t0 7.5t0 6.5q0 1 1 2t1 2q1 5 -0.5 10t0.5 10q2 8 3.5 17t4.5 17q2 5 6 11.5t8 12.5q2 3 2 6t2 5
l3 3q2 2 1.5 3.5t1.5 3.5q6 9 14.5 17t0.5 22q-1 2 -3 3.5t-4 3.5q-2 3 -3 6.5t-3 6.5q-3 5 -5.5 8.5t-4.5 8.5q-1 3 -2.5 6.5t-3.5 7.5l-6 18q-2 5 -4.5 11t-3.5 12q-2 11 -2 19t-2 17l-4 14q-2 9 -1 19.5t-1 19.5q0 2 -1 2.5t-1 2.5q-3 12 -0.5 25t0.5 24q-4 20 -2 42.5
t-4 39.5q-5 14 -13.5 25.5t-16.5 22.5q-5 6 -11 12.5t0 17.5q3 6 12 14q10 7 20 17.5t19 17.5l7.5 5t5.5 3q2 1 5 1t2 0z" />
    <glyph glyph-name="asciitilde" unicode="~" horiz-adv-x="531" 
d="M146 434q4 1 5.5 0.5t3.5 -1.5q7 -2 14 -0.5t13 0.5l29 -8q7 -2 12.5 -5t13.5 -5q4 -2 7 -4.5t6 -3.5q4 -1 4.5 -1.5l2.5 -2.5t6.5 -3t9.5 -3q5 -3 7 -4.5t7 -3.5q11 -4 26.5 -10.5t32.5 0.5q14 5 27.5 13.5t25.5 16.5q4 3 7 7.5t8 6.5q4 2 7 5.5t11 2.5q2 -1 6.5 -2.5
t6.5 -3.5q5 -4 9.5 -9.5t10.5 -11.5l12 -10t9 -10l2 -6q4 -5 9.5 -8t4.5 -11t-8.5 -15t-14.5 -12q-3 -2 -3.5 -3.5t-2.5 -3.5q-2 -3 -5 -4t-5 -3q-3 -2 -5 -6t-7 -7q-2 -2 -4 -2.5t-4 -2.5l-3.5 -3.5l-3.5 -3.5l-25 -16l-12 -6q-5 -2 -10 -4.5t-10 -3.5q-3 -1 -5.5 0t-4.5 0
q-2 0 -2.5 -1t-2.5 -1q-3 -1 -6.5 0t-7.5 0q-5 -1 -7 -2t-6 0l-4 2q-4 1 -8 0t-8 0q-2 0 -2.5 1t-2.5 1q-2 1 -5.5 0t-6.5 0q-4 1 -9 2.5t-9 3.5q-11 4 -22 9.5t-22 10.5q-5 2 -9.5 5t-12.5 5q-6 2 -12.5 7t-13.5 7q-4 1 -7.5 3t-6.5 2q-2 1 -4.5 0.5t-4.5 -0.5q-2 1 -6 1.5
t-9 -1.5q-3 -1 -6 -3.5t-7 -3.5q-6 -2 -10 -5t-9 -5q-6 -2 -9.5 -7.5t-7.5 -8.5h-4q-4 -3 -6.5 -7t-6.5 -7q-5 -3 -10 -6.5t-14 -1.5l-9 6q-5 3 -10 9t-10 11t-11 10t-9 10t-4.5 7t-5.5 5q-7 5 -8.5 14.5t4.5 17.5q3 4 8.5 8.5t10.5 9.5q7 7 12.5 13.5t13.5 12.5q3 2 6.5 3
t6.5 3q7 5 14.5 9.5t13.5 6.5q7 2 14 3.5t13 4.5q4 1 8.5 3t8.5 3q5 1 10 0.5t7 0.5z" />
    <glyph glyph-name="exclamdown" unicode="&#xa1;" horiz-adv-x="223" 
d="M43 353q9 2 22 -0.5t26 -0.5q8 1 16 0q12 -2 20.5 -1t11.5 -12q1 -5 3 -8.5t0 -10.5q0 -1 -1 -2t-1 -2q0 -3 2 -6t2 -6q2 -6 1 -14t-3 -12q-2 -8 1 -16t1 -18q0 -1 -2 -5q0 -2 1 -4t1 -5q2 -5 1 -11t1 -14q2 -14 -1 -23.5t-1 -23.5q2 -12 2 -30v-33q0 -16 -1 -31.5
t1 -26.5q1 -5 2.5 -9.5t1.5 -9.5q1 -2 0 -3.5t-1 -3.5q-1 -5 2 -12t1 -15q-1 -8 -2.5 -13.5t0.5 -14.5t0 -19.5t0 -19.5q2 -2 2 -4q1 -4 0.5 -8t-0.5 -8q2 -2 2 -4q2 -9 1 -20t1 -22q2 -6 0.5 -12.5t-0.5 -12.5q1 -3 2 -12t0 -13q-1 -2 -4 -5.5t-5 -4.5q-8 -2 -16.5 -1
t-15.5 -1q-2 0 -3 -1t-3 -1q-2 -1 -4 0t-4 1q-13 0 -30 -1.5t-28 3.5q-4 2 -5 6.5t-2 10.5l-4 12q-1 4 0 10t0 11t0 10t0 10t-2 9q-2 11 -1 22t-1 22q0 2 -1 3t-1 3q-2 11 0 23.5t0 24.5q0 2 -1 3t-1 2q-1 4 0 8.5t0 8.5q-1 5 0 10q2 8 0.5 16.5t-0.5 15.5q0 2 1 3t1 2
q1 5 -1 9.5t-3 9.5t0 10t0 10q0 1 -1 2t-1 3t1 3t1 2q2 11 1 24.5t-1 26.5q0 31 -1 54.5t-1 55.5q0 13 1 27t-1 26q-1 5 -3 11t-1 13q2 10 5 18.5t11 10.5q2 1 4.5 1h4.5zM89 579h8t9 -1q8 -1 16 -6q24 -17 30 -51q1 -5 0.5 -11.5t-0.5 -12.5v-17.5t-2 -15.5
q-2 -9 -9.5 -20.5t-17.5 -15.5q-4 -2 -8 -5.5t-9 -4.5q-2 0 -4.5 0.5t-4.5 -0.5q-15 -3 -32 0q-3 1 -6.5 0t-6.5 0q-5 1 -14 6.5t-13 8.5q-8 6 -15.5 17t-9.5 22q0 3 0.5 5.5t-0.5 4.5q-1 4 0 8q2 7 1 14t1 13q2 5 4.5 9t5.5 9q2 2 2 3.5t1 3.5q2 4 8.5 9.5t10.5 7.5
q8 4 15.5 9.5t16.5 7.5q10 3 23 3z" />
    <glyph glyph-name="cent" unicode="&#xa2;" horiz-adv-x="520" 
d="M200 866q7 3 22.5 1t26.5 -4q3 -1 5.5 0t4.5 0q1 0 2 -1t2 -1q7 -2 16 -1.5t16.5 -1t11.5 -6.5t2 -16q0 -1 -1 -2t-1 -2q0 -3 1.5 -5.5t0.5 -6.5q0 -1 -1 -1.5t-1 -1.5q-2 -9 -1 -21.5t-1 -22.5q-1 -3 -1.5 -6t1.5 -8q2 -4 8.5 -6.5t12.5 -4.5q4 -2 7.5 -5t7.5 -5
q5 -3 10 -5.5t9 -5.5q5 -3 9 -7.5t8 -8.5q12 -12 21.5 -24t15.5 -29q2 -3 3.5 -5.5t2.5 -5.5q1 -1 0.5 -2t0.5 -3q1 -3 1.5 -4t1.5 -5q2 -8 4.5 -14t3.5 -14q1 -5 3 -9t3 -9l2 -14q2 -7 1 -18t1 -19q0 -2 1 -3t1 -2q0 -2 -1 -3t-1 -4q0 -2 1.5 -5.5t0.5 -8.5q0 -2 -1 -2.5
t-1 -2.5t1.5 -4t0.5 -5q0 -2 -1 -2.5t-1 -2.5q-1 -2 0 -5t0 -5q-1 -4 -5 -8.5t-6 -5.5q-5 -2 -13.5 -0.5t-13.5 0.5q-9 -2 -26 -2t-28 2q-9 2 -15 0.5t-9 6.5v5q0 2 -1 2.5t-1 1.5q-2 8 0 16t0 16q-3 15 -4 29.5t-6 27.5q-3 9 -8 17.5t-10 15.5q-6 9 -16.5 15.5t-21.5 11.5
q-3 1 -6 3t-5 3q-2 0 -5 -0.5t-5 0.5q-20 3 -35.5 -4.5t-28.5 -15.5q-5 -3 -11.5 -9.5t-9.5 -11.5q-1 -1 -1 -2.5t-1 -3.5q-4 -5 -6.5 -11.5t-5.5 -14.5q-2 -5 -3.5 -9.5t-2.5 -8.5q-1 -5 -0.5 -10.5t-1.5 -11.5q-2 -11 -3.5 -23t-3.5 -22q-2 -5 0.5 -11t1.5 -12l-5 -10
q-2 -8 -1 -20t1 -23q0 -12 -1 -23.5t1 -19.5l3 -5q2 -7 1 -15t1 -16q0 -1 2 -5q0 -2 -1 -3.5t-1 -4.5q0 -4 1 -8t2 -9q1 -2 0.5 -4t-0.5 -4q2 -2 2 -4q1 -2 -0.5 -4t-1.5 -4q0 -1 1 -2t1 -2q2 -7 1 -13t1 -14q1 -3 2.5 -5.5t2.5 -4.5q2 -8 0.5 -16t0.5 -16l2 -12q1 -5 3 -9
l4 -8q0 -2 -0.5 -5t0.5 -5q1 -5 2.5 -11.5t2.5 -11.5q5 -20 20.5 -33.5t32.5 -21.5q3 -2 6.5 -4t5.5 -2q4 -1 10.5 -1.5t13.5 0t13 1.5t9 2q17 6 30.5 17t20.5 29l4 10t0 12q-1 3 -1 3.5t1 3.5q2 10 0 19.5t-4 15.5v5q0 2 -1 3t-1 3q1 2 1 4q0 5 1 7q4 8 16.5 7.5t23.5 1.5
l4 2q5 1 11 -0.5t11 0.5q8 2 22 3.5t20 -4.5q2 -2 4.5 -9.5t3.5 -11.5t0 -7t0 -7q0 -2 1 -2.5t1 -2.5q3 -14 0.5 -33.5t-0.5 -33.5q1 -4 1.5 -7t-1.5 -10q-1 -6 -2.5 -12t-3.5 -11q0 -2 0.5 -3t-0.5 -3q-1 -8 -4 -13t-6 -12q-2 -6 -7 -13.5t-9 -12.5q-5 -7 -13 -12.5
t-15 -10.5q-3 -2 -7 -3t-7 -3q-5 -3 -14 -8.5t-14 -7.5q-8 -3 -16.5 -4t-15.5 -6q-4 -2 -5.5 -8t-3.5 -13v-17q2 -13 2.5 -29t-2.5 -29q-1 -5 -0.5 -9t-4.5 -6q-4 -2 -9.5 0t-10.5 0q-2 0 -2 -0.5t-2 -1.5q-5 -1 -11.5 0.5t-12.5 -0.5q-1 0 -5 -2q-8 -2 -13.5 -0.5
t-10.5 2.5q-12 3 -24 1.5t-14 9.5q-2 10 -2 21v25q0 11 -0.5 20t0.5 15q2 8 1.5 14t-7.5 11q-2 2 -5 2.5t-6 2.5q-5 4 -12 6.5t-13 6.5q-2 1 -2 2t-2 2l-16 8q-2 2 -3 3.5t-3 2.5l-9 5q-3 2 -6 5.5t-6 6.5l-12 11l-14 25q-2 4 -3.5 6t-2.5 7q-2 8 -6 16.5t-6 17.5v5
q-2 12 -6 23t-6 24q-1 5 -0.5 8.5t-1.5 8.5q-1 5 -2.5 10t-3.5 11q-1 3 0 6.5t0 6.5q-1 6 -2.5 11.5t-3.5 11.5q-1 5 0 10t0 10q0 2 -2 4q-2 6 -1 12t0 12l-3 5q-1 5 0 10.5t0 10.5q0 2 -2 4q-1 5 0 9t0 9l-2 4q-1 5 0.5 10t-0.5 10l-2 4q-1 6 -0.5 13t-0.5 12q-2 7 0 12.5
t3 12.5q2 5 1.5 11.5t-1.5 11.5q-1 4 -2 7t0 7t2 6.5t2 5.5q2 8 1 16.5t1 17.5l3 4q2 9 0.5 18.5t0.5 17.5l4 15q2 5 1.5 9.5t0.5 9.5l6 26q3 11 7 22.5t7 23.5q1 3 3.5 6.5t4.5 8.5l2 9q1 2 2 2t2 2l12 20t12 19q2 3 7 7t9 8q8 8 14 13.5t15 11.5q7 5 15 8.5t15 5.5
q11 2 20.5 5t11.5 14l4 18q1 5 -0.5 10.5t0.5 11.5l4 12q1 3 0 6t0 6q0 1 1 1.5t1 2.5q2 7 1.5 11t3.5 9q5 5 8 5z" />
    </font>
</defs>
</svg>
