<?xml version="1.0" standalone="no"?>
<!DOCTYPE svg PUBLIC "-//W3C//DTD SVG 1.1//EN" "http://www.w3.org/Graphics/SVG/1.1/DTD/svg11.dtd" >
<svg>
<metadata>
Created by FontForge 20120731 at Tue Jun 20 11:12:55 2017
 By www
&#60; info@fontfont.de &#62; Copyright Ole Schaefer, 1999. Published by FontShop International for  FontFont Release 25, Fago Condensed is a trademark of FSI Fonts and Software GmbH.
</metadata>
<defs>
<font id="FagoCo" horiz-adv-x="470" >
  <font-face 
    font-family="FagoCo"
    font-weight="500"
    font-stretch="normal"
    units-per-em="1000"
    panose-1="0 0 0 0 0 0 0 0 0 0"
    ascent="800"
    descent="-200"
    x-height="530"
    cap-height="700"
    bbox="-120 -200 1041 915"
    underline-thickness="50"
    underline-position="-75"
    stemh="68"
    stemv="79"
    unicode-range="U+0020-FB02"
  />
<missing-glyph horiz-adv-x="220" 
 />
    <glyph glyph-name=".notdef" horiz-adv-x="220" 
 />
    <glyph glyph-name="space" unicode=" " horiz-adv-x="220" 
 />
    <glyph glyph-name="exclam" unicode="!" horiz-adv-x="291" 
d="M194 700l-15 -460h-66l-15 460h96zM211 58c0 -38 -28 -68 -65 -68s-66 31 -66 68s29 67 66 67s65 -30 65 -67z" />
    <glyph glyph-name="quotedbl" unicode="&#x22;" horiz-adv-x="403" 
d="M333 700l-21 -275h-62l-20 275h103zM173 700l-21 -275h-62l-20 275h103z" />
    <glyph glyph-name="numbersign" unicode="#" horiz-adv-x="590" 
d="M540 170h-100v-170h-70v170h-150v-170h-70v170h-100v68h100v224h-100v68h100v170h70v-170h150v170h70v-170h100v-68h-100v-224h100v-68zM370 238v224h-150v-224h150z" />
    <glyph glyph-name="dollar" unicode="$" horiz-adv-x="340" 
d="M310 178c0 -111 -52 -153 -105 -169v-119h-70v110c-50 0 -103 18 -103 18v74s58 -20 100 -20c46 0 98 9 98 100c0 61 -31 92 -68 125l-57 51c-41 36 -75 77 -75 154c0 108 61 150 115 163v115h70v-112c35 -4 68 -14 68 -14v-71s-49 18 -93 18c-39 0 -82 -20 -82 -91
c0 -55 28 -85 56 -110l50 -45c48 -43 96 -89 96 -177z" />
    <glyph glyph-name="percent" unicode="%" horiz-adv-x="767" 
d="M727 170c0 -141 -62 -180 -137 -180c-73 0 -137 34 -137 180c0 141 67 180 137 180c73 0 137 -40 137 -180zM560 710l-280 -720h-72l280 720h72zM314 530c0 -141 -62 -180 -137 -180c-73 0 -137 34 -137 180c0 141 67 180 137 180c73 0 137 -40 137 -180zM657 170
c0 101 -23 126 -67 126c-40 0 -67 -23 -67 -126c0 -99 23 -124 67 -124c39 0 67 19 67 124zM244 530c0 101 -23 126 -67 126c-40 0 -67 -23 -67 -126c0 -99 23 -124 67 -124c39 0 67 19 67 124z" />
    <glyph glyph-name="ampersand" unicode="&#x26;" horiz-adv-x="615" 
d="M595 0l-100 -10l-64 89c-56 -67 -123 -89 -183 -89c-106 0 -198 46 -198 189c0 135 110 185 157 207c-29 18 -95 64 -95 159c0 103 60 165 166 165c102 0 163 -59 163 -153c0 -90 -57 -146 -133 -178l123 -167c26 50 45 122 45 214h80c0 -109 -34 -209 -76 -279zM363 550
c0 64 -25 100 -85 100c-62 0 -88 -40 -88 -105c0 -62 38 -101 72 -127c60 24 101 70 101 132zM389 139l-144 201c-52 -23 -115 -58 -115 -159c0 -87 45 -127 118 -127c52 0 108 36 141 85z" />
    <glyph glyph-name="quoteright" unicode="&#x2019;" horiz-adv-x="256" 
d="M196 700l-64 -275h-62l18 275h108z" />
    <glyph glyph-name="parenleft" unicode="(" horiz-adv-x="263" 
d="M253 -150h-78s-135 252 -135 480s135 480 135 480h78s-123 -236 -123 -480s123 -480 123 -480z" />
    <glyph glyph-name="parenright" unicode=")" horiz-adv-x="263" 
d="M223 330c0 -228 -135 -480 -135 -480h-78s123 236 123 480s-123 480 -123 480h78s135 -252 135 -480z" />
    <glyph glyph-name="asterisk" unicode="*" horiz-adv-x="435" 
d="M385 490l-40 -70l-107 84l20 -134h-81l20 134l-107 -84l-40 70l126 50l-126 50l40 70l107 -84l-20 134h81l-20 -134l107 84l40 -70l-126 -50z" />
    <glyph glyph-name="plus" unicode="+" horiz-adv-x="550" 
d="M480 295h-165v-170h-80v170h-165v80h165v170h80v-170h165v-80z" />
    <glyph glyph-name="comma" unicode="," horiz-adv-x="276" 
d="M207 125l-45 -275h-72l18 275h99z" />
    <glyph glyph-name="hyphen" unicode="-" horiz-adv-x="460" 
d="M390 305h-320v75h320v-75z" />
    <glyph glyph-name="period" unicode="." horiz-adv-x="291" 
d="M211 58c0 -38 -28 -68 -65 -68s-66 31 -66 68s29 67 66 67s65 -30 65 -67z" />
    <glyph glyph-name="slash" unicode="/" horiz-adv-x="252" 
d="M222 710l-120 -720h-72l120 720h72z" />
    <glyph glyph-name="zero" unicode="0" horiz-adv-x="480" 
d="M430 280c0 -247 -100 -290 -190 -290c-93 0 -190 51 -190 290c0 249 109 290 190 290c82 0 190 -45 190 -290zM350 280c0 181 -46 229 -110 229s-110 -46 -110 -229c0 -192 56 -228 110 -228c55 0 110 40 110 228z" />
    <glyph glyph-name="one" unicode="1" horiz-adv-x="270" 
d="M190 0h-80v473l-100 -43v67l120 63h60v-560z" />
    <glyph glyph-name="two" unicode="2" horiz-adv-x="361" 
d="M312 77l-10 -77h-272v75l79 90c63 72 122 132 122 230c0 71 -22 106 -82 106c-64 0 -117 -23 -117 -23v65s45 27 123 27c87 0 156 -46 156 -170c0 -113 -71 -197 -147 -276l-45 -47h193z" />
    <glyph glyph-name="three" unicode="3" horiz-adv-x="370" 
d="M320 97c0 -77 -29 -131 -75 -167c-57 -45 -140 -63 -225 -65v65c61 3 124 14 166 45c33 25 54 58 54 122c0 101 -57 125 -129 125h-51v65h52c61 0 112 27 112 118c0 66 -24 97 -87 97c-48 0 -117 -19 -117 -19v66s60 21 123 21c91 0 161 -41 161 -161
c0 -75 -43 -134 -106 -151c59 -12 122 -58 122 -161z" />
    <glyph glyph-name="four" unicode="4" horiz-adv-x="453" 
d="M443 123l-10 -77h-88v-151l-80 -10v161h-235v65l76 449h89l-80 -437h150l14 247h66v-247h98z" />
    <glyph glyph-name="five" unicode="5" horiz-adv-x="410" 
d="M365 129c0 -93 -33 -157 -85 -198c-55 -43 -131 -64 -215 -67v66c58 3 123 18 164 53c35 30 56 65 56 137c0 98 -29 127 -85 127c-51 0 -107 -36 -107 -36l-33 11l10 338h285l-10 -76h-201l-9 -192s43 22 86 22c80 0 144 -54 144 -185z" />
    <glyph glyph-name="six" unicode="6" horiz-adv-x="460" 
d="M420 223c0 -195 -98 -233 -185 -233c-104 0 -185 53 -185 290c0 194 75 397 318 419v-67c-128 -15 -200 -74 -232 -243c0 0 43 41 124 41c92 0 160 -49 160 -207zM340 223c0 109 -24 144 -90 144c-76 0 -117 -33 -117 -33s-3 -45 -3 -64c0 -177 36 -218 105 -218
c66 0 105 27 105 171z" />
    <glyph glyph-name="seven" unicode="7" horiz-adv-x="330" 
d="M320 493c-150 -208 -169 -334 -169 -588l-80 -10c0 262 34 419 174 588h-235v77h310v-67z" />
    <glyph glyph-name="eight" unicode="8" horiz-adv-x="486" 
d="M436 174c0 -130 -94 -184 -193 -184c-116 0 -193 49 -193 181c0 90 66 147 120 173c-36 20 -102 64 -102 158c0 126 90 168 175 168c83 0 175 -39 175 -167c0 -83 -63 -133 -110 -158c69 -29 128 -82 128 -171zM338 504c0 79 -40 104 -95 104c-61 0 -95 -28 -95 -106
c0 -62 36 -99 64 -112l40 -19c35 23 86 62 86 133zM356 175c0 85 -55 107 -96 125l-42 18c-41 -26 -88 -62 -88 -146c0 -86 45 -119 113 -119c73 0 113 38 113 122z" />
    <glyph glyph-name="nine" unicode="9" horiz-adv-x="462" 
d="M412 266c0 -271 -132 -392 -302 -402v66c146 20 205 117 219 241c0 0 -39 -40 -112 -40c-114 0 -177 75 -177 207c0 142 64 232 187 232c146 0 185 -133 185 -304zM334 232c5 132 -4 278 -107 278c-80 0 -107 -64 -107 -161c0 -92 18 -156 106 -156c51 0 108 39 108 39z
" />
    <glyph glyph-name="colon" unicode=":" horiz-adv-x="291" 
d="M211 473c0 -38 -28 -68 -65 -68s-66 31 -66 68s29 67 66 67s65 -30 65 -67zM211 58c0 -38 -28 -68 -65 -68s-66 31 -66 68s29 67 66 67s65 -30 65 -67z" />
    <glyph glyph-name="semicolon" unicode=";" horiz-adv-x="291" 
d="M231 473c0 -38 -28 -68 -65 -68s-66 31 -66 68s29 67 66 67s65 -30 65 -67zM207 125l-45 -275h-72l18 275h99z" />
    <glyph glyph-name="less" unicode="&#x3c;" horiz-adv-x="530" 
d="M460 90l-390 210v70l390 210v-95l-313 -148l313 -152v-95z" />
    <glyph glyph-name="equal" unicode="=" horiz-adv-x="530" 
d="M460 390h-390v80h390v-80zM460 200h-390v80h390v-80z" />
    <glyph glyph-name="greater" unicode="&#x3e;" horiz-adv-x="530" 
d="M460 300l-390 -210v95l313 152l-313 148v95l390 -210v-70z" />
    <glyph glyph-name="question" unicode="?" horiz-adv-x="338" 
d="M288 582c0 -75 -32 -103 -62 -141c-26 -33 -50 -64 -50 -134c0 -20 2 -42 7 -67h-74c-3 23 -5 43 -5 62c0 90 32 135 62 173c25 32 44 60 44 105c0 47 -24 60 -63 60c-41 0 -92 -20 -92 -20v66s43 24 102 24c74 0 131 -27 131 -128zM215 58c0 -38 -28 -68 -65 -68
s-66 31 -66 68s29 67 66 67s65 -30 65 -67z" />
    <glyph glyph-name="at" unicode="@" horiz-adv-x="899" 
d="M849 326c0 -197 -72 -313 -188 -313c-114 0 -118 117 -118 117s-56 -120 -152 -120c-64 0 -134 43 -134 172c0 171 82 316 217 316c69 0 100 -39 100 -39l15 31h59l-48 -289c-12 -74 16 -117 63 -117c63 0 111 64 111 242c0 217 -120 319 -294 319
c-201 0 -355 -150 -355 -419c0 -270 161 -361 295 -361c98 0 184 21 184 21v-69s-77 -17 -184 -17c-192 0 -370 121 -370 426c0 293 184 484 430 484c232 0 369 -149 369 -384zM557 411c0 0 -28 25 -78 25c-82 0 -139 -101 -139 -248c0 -83 24 -112 59 -112
c64 0 123 134 123 134z" />
    <glyph glyph-name="A" unicode="A" horiz-adv-x="460" 
d="M450 0h-88l-35 166h-194l-35 -166h-88l173 700h94zM314 234l-53 254c-14 68 -31 165 -31 165s-17 -97 -31 -165l-53 -254h168z" />
    <glyph glyph-name="B" unicode="B" horiz-adv-x="480" 
d="M430 198c0 -133 -54 -198 -223 -198h-127v700h127c152 0 203 -58 203 -175c0 -107 -60 -147 -120 -161c79 -15 140 -60 140 -166zM330 522c0 93 -27 115 -135 115h-35v-247h27c107 0 143 43 143 132zM350 198c0 102 -57 132 -163 132h-27v-267h44c111 0 146 34 146 135z
" />
    <glyph glyph-name="C" unicode="C" horiz-adv-x="360" 
d="M340 10c0 0 -54 -20 -102 -20c-93 0 -188 50 -188 360s120 360 201 360c58 0 89 -20 89 -20v-69s-37 20 -92 20c-57 0 -118 -63 -118 -291c0 -214 44 -289 108 -289c46 0 102 21 102 21v-72z" />
    <glyph glyph-name="D" unicode="D" horiz-adv-x="490" 
d="M440 350c0 -297 -106 -350 -253 -350h-107v700h104c138 0 256 -36 256 -350zM360 350c0 233 -58 281 -162 281h-38v-562h33c113 0 167 45 167 281z" />
    <glyph glyph-name="E" unicode="E" horiz-adv-x="390" 
d="M360 0h-280v700h280v-73h-200v-217h180v-68h-180v-269h200v-73z" />
    <glyph glyph-name="F" unicode="F" horiz-adv-x="375" 
d="M360 700l-10 -75h-190v-215h180v-68h-180v-342h-80v700h280z" />
    <glyph glyph-name="G" unicode="G" horiz-adv-x="515" 
d="M440 30c0 0 -95 -40 -170 -40c-71 0 -220 10 -220 360c0 318 159 360 245 360c83 0 125 -27 125 -27v-69s-51 26 -127 26c-70 0 -163 -44 -163 -290c0 -262 83 -292 140 -292c45 0 90 19 90 19v266h-90v67h170v-380z" />
    <glyph glyph-name="H" unicode="H" horiz-adv-x="530" 
d="M450 0h-80v342h-210v-342h-80v700h80v-290h210v290h80v-700z" />
    <glyph glyph-name="I" unicode="I" horiz-adv-x="242" 
d="M162 0h-82v700h82v-700z" />
    <glyph glyph-name="J" unicode="J" horiz-adv-x="280" 
d="M200 115c0 -104 -60 -125 -122 -125c-38 0 -78 14 -78 14v67s41 -12 63 -12c36 0 57 9 57 62v579h80v-585z" />
    <glyph glyph-name="K" unicode="K" horiz-adv-x="460" 
d="M450 0l-95 -10l-175 391l162 319h98l-180 -319zM160 0h-80v700h80v-700z" />
    <glyph glyph-name="L" unicode="L" horiz-adv-x="330" 
d="M320 74l-10 -74h-230v700h80v-626h160z" />
    <glyph glyph-name="M" unicode="M" horiz-adv-x="670" 
d="M595 0h-79l-7 366c-1 77 1 182 1 182s-32 -95 -52 -140l-123 -281l-124 281c-20 45 -51 139 -51 139s2 -110 1 -181l-7 -366h-79l24 700h64l172 -425l173 425h63z" />
    <glyph glyph-name="N" unicode="N" horiz-adv-x="520" 
d="M440 0h-69l-155 377c-30 73 -68 182 -68 182s12 -107 12 -200v-359h-80v700h74l152 -362c35 -83 66 -190 66 -190s-12 120 -12 208v344h80v-700z" />
    <glyph glyph-name="O" unicode="O" 
d="M430 350c0 -317 -105 -360 -195 -360s-195 41 -195 360c0 317 110 360 195 360c86 0 195 -43 195 -360zM350 350c0 228 -51 300 -115 300c-63 0 -115 -69 -115 -300c0 -237 59 -300 115 -300c55 0 115 62 115 300z" />
    <glyph glyph-name="P" unicode="P" horiz-adv-x="440" 
d="M410 460c0 -167 -88 -228 -250 -233v-227h-80v700h107c164 0 223 -75 223 -240zM330 460c0 142 -43 172 -139 172h-31v-346c133 5 170 59 170 174z" />
    <glyph glyph-name="Q" unicode="Q" 
d="M430 350c0 -279 -82 -346 -163 -358l88 -182h-107l-45 182c-81 11 -163 77 -163 358c0 320 110 360 195 360c88 0 195 -46 195 -360zM350 350c0 228 -51 300 -115 300s-115 -64 -115 -300c0 -237 59 -301 115 -301c55 0 115 63 115 301z" />
    <glyph glyph-name="R" unicode="R" 
d="M430 0h-90l-40 179c-19 86 -49 116 -70 126c-23 -3 -53 -5 -70 -5v-300h-80v700h127c137 0 213 -42 213 -192c0 -103 -46 -156 -114 -183c41 -27 56 -72 71 -127zM340 508c0 102 -33 124 -140 124h-40v-272c110 6 180 20 180 148z" />
    <glyph glyph-name="S" unicode="S" horiz-adv-x="360" 
d="M325 179c0 -167 -109 -189 -188 -189c-50 0 -100 18 -100 18v74s55 -20 100 -20c59 0 108 22 108 113c0 74 -34 105 -73 141l-58 54c-37 34 -69 83 -69 159c0 141 93 181 170 181c45 0 93 -16 93 -16v-71s-49 18 -93 18c-53 0 -92 -33 -92 -104c0 -59 26 -90 59 -121
l54 -51c45 -43 89 -93 89 -186z" />
    <glyph glyph-name="T" unicode="T" horiz-adv-x="350" 
d="M370 700l-10 -75h-135v-625h-80v625h-145v75h370z" />
    <glyph glyph-name="U" unicode="U" horiz-adv-x="496" 
d="M421 180c0 -137 -62 -190 -173 -190c-115 0 -173 49 -173 190v520h80v-535c0 -78 29 -110 93 -110c57 0 93 31 93 110v535h80v-520z" />
    <glyph glyph-name="V" unicode="V" horiz-adv-x="400" 
d="M410 700l-156 -700h-108l-156 700h95l86 -480c13 -72 29 -185 29 -185s17 113 30 185l85 480h95z" />
    <glyph glyph-name="W" unicode="W" horiz-adv-x="690" 
d="M685 700l-112 -700h-113l-85 472c-14 76 -30 186 -30 186s-16 -111 -30 -186l-85 -472h-113l-112 700h94l57 -483c7 -60 17 -179 17 -179s15 119 26 179l85 483h123l85 -483c10 -59 25 -179 25 -179s12 116 19 179l55 483h94z" />
    <glyph glyph-name="X" unicode="X" horiz-adv-x="400" 
d="M410 0h-101l-109 320l-110 -320h-100l156 374l-146 326h103l97 -280l97 280h103l-145 -326z" />
    <glyph glyph-name="Y" unicode="Y" horiz-adv-x="400" 
d="M410 700l-170 -412v-288h-80v288l-170 412h98l112 -342l112 342h98z" />
    <glyph glyph-name="Z" unicode="Z" horiz-adv-x="368" 
d="M330 0h-290v61l210 570h-210v69h290v-61l-210 -570h210v-69z" />
    <glyph glyph-name="bracketleft" unicode="[" horiz-adv-x="300" 
d="M280 -150h-200v960h200v-71h-120v-818h120v-71z" />
    <glyph glyph-name="backslash" unicode="\" horiz-adv-x="252" 
d="M222 -10h-72l-120 720h72z" />
    <glyph glyph-name="bracketright" unicode="]" horiz-adv-x="300" 
d="M220 -150h-200v71h120v818h-120v71h200v-960z" />
    <glyph glyph-name="asciicircum" unicode="^" horiz-adv-x="446" 
d="M406 420h-92l-91 284l-91 -284h-92l134 350h98z" />
    <glyph glyph-name="underscore" unicode="_" horiz-adv-x="490" 
d="M490 -190h-490v75h490v-75z" />
    <glyph glyph-name="quoteleft" unicode="&#x2018;" horiz-adv-x="256" 
d="M186 700l-18 -275h-108l64 275h62z" />
    <glyph glyph-name="a" unicode="a" horiz-adv-x="440" 
d="M365 0h-67l-10 52c-15 -21 -53 -62 -105 -62c-66 0 -138 27 -138 171c0 140 112 165 173 165h67v75c0 58 -18 73 -70 73c-60 0 -130 -25 -130 -25v66s66 25 144 25c72 0 136 -21 136 -149v-391zM285 111v166l-45 -1c-70 -2 -115 -17 -115 -112s30 -109 75 -109
c35 0 69 36 85 56z" />
    <glyph glyph-name="b" unicode="b" horiz-adv-x="480" 
d="M430 268c0 -248 -113 -278 -202 -278c-68 0 -148 24 -148 24v706h80v-227c22 18 56 47 110 47c69 0 160 -30 160 -272zM350 268c0 202 -47 205 -100 205c-43 0 -90 -37 -90 -37v-373s42 -9 71 -9c50 0 119 16 119 214z" />
    <glyph glyph-name="c" unicode="c" horiz-adv-x="340" 
d="M320 11c0 0 -51 -21 -97 -21c-67 0 -173 23 -173 272s121 278 188 278c52 0 82 -19 82 -19v-68s-42 19 -89 19c-49 0 -101 -42 -101 -210c0 -153 46 -202 93 -202c49 0 97 22 97 22v-71z" />
    <glyph glyph-name="d" unicode="d" horiz-adv-x="490" 
d="M410 0h-58l-11 47c-26 -29 -64 -57 -126 -57c-64 0 -165 31 -165 275c0 245 125 275 185 275c46 0 78 -21 95 -40v220h80v-720zM330 97v345c-12 10 -43 31 -85 31c-51 0 -115 -33 -115 -208c0 -186 62 -209 105 -209c46 0 86 32 95 41z" />
    <glyph glyph-name="e" unicode="e" horiz-adv-x="421" 
d="M380 265l-1 -23h-250c0 -167 59 -183 106 -183c37 0 112 19 112 19v-70s-62 -18 -112 -18c-85 0 -185 30 -185 270c0 220 86 280 177 280c92 0 162 -64 153 -275zM303 294c0 144 -28 188 -76 188c-66 0 -94 -61 -97 -188h173z" />
    <glyph glyph-name="f" unicode="f" horiz-adv-x="260" 
d="M290 652c0 0 -53 14 -88 14c-34 0 -52 -23 -52 -69v-67h90l-10 -61h-80v-469h-80v469h-60v61h60v65c0 102 58 135 129 135c51 0 91 -16 91 -16v-62z" />
    <glyph glyph-name="g" unicode="g" horiz-adv-x="424" 
d="M414 472h-90c25 -30 37 -73 37 -110c0 -123 -58 -180 -156 -180c-33 0 -57 11 -57 11s-32 -21 -32 -47c0 -29 19 -40 56 -44l81 -8c85 -8 151 -40 151 -137c0 -113 -72 -157 -211 -157c-94 0 -163 40 -163 131c0 61 40 100 62 120c-23 13 -42 35 -42 74c0 49 40 80 57 91
c-35 28 -59 77 -59 146c0 124 68 178 157 178c31 0 45 -10 73 -10h136v-58zM284 362c0 85 -24 124 -79 124c-49 0 -79 -34 -79 -124c0 -87 27 -125 79 -125c56 0 79 39 79 125zM329 -48c0 57 -35 67 -86 72l-80 8c-12 1 -22 3 -22 3c-16 -16 -39 -47 -39 -94
c0 -50 29 -86 91 -86c107 0 136 34 136 97z" />
    <glyph glyph-name="h" unicode="h" horiz-adv-x="505" 
d="M430 0h-80v396c0 55 -11 72 -55 72c-60 0 -135 -47 -135 -47v-421h-80v720h80v-249s75 69 154 69c72 0 116 -41 116 -138v-402z" />
    <glyph glyph-name="i" unicode="i" horiz-adv-x="220" 
d="M164 670c0 -30 -24 -55 -54 -55s-54 25 -54 55s24 55 54 55s54 -25 54 -55zM150 0h-80v530h80v-530z" />
    <glyph glyph-name="j" unicode="j" horiz-adv-x="220" 
d="M164 670c0 -30 -24 -55 -54 -55s-54 25 -54 55s24 55 54 55s54 -25 54 -55zM150 -71c0 -118 -72 -129 -112 -129c-36 0 -78 13 -78 13v69s42 -11 67 -11c22 0 43 8 43 52v607h80v-601z" />
    <glyph glyph-name="k" unicode="k" horiz-adv-x="425" 
d="M420 0l-95 -10l-144 320l120 220h99l-139 -219zM160 0h-80v720h80v-720z" />
    <glyph glyph-name="l" unicode="l" horiz-adv-x="230" 
d="M155 0h-80v720h80v-720z" />
    <glyph glyph-name="m" unicode="m" horiz-adv-x="715" 
d="M640 0h-80v406c0 49 -14 63 -50 63c-49 0 -110 -42 -110 -42v-427h-80v406c0 49 -14 63 -50 63c-49 0 -110 -42 -110 -42v-427h-80v530h57l20 -54s66 64 136 64c55 0 86 -22 99 -67c24 22 84 67 141 67c78 0 107 -45 107 -133v-407z" />
    <glyph glyph-name="n" unicode="n" horiz-adv-x="505" 
d="M430 0h-80v396c0 51 -12 72 -55 72c-60 0 -135 -43 -135 -43v-425h-80v530h57l20 -55s77 65 156 65c76 0 117 -41 117 -138v-402z" />
    <glyph glyph-name="o" unicode="o" horiz-adv-x="454" 
d="M414 265c0 -228 -92 -275 -187 -275s-187 49 -187 275c0 218 88 275 187 275c94 0 187 -50 187 -275zM334 265c0 179 -52 214 -107 214c-58 0 -107 -42 -107 -214c0 -175 62 -213 107 -213s107 39 107 213z" />
    <glyph glyph-name="p" unicode="p" horiz-adv-x="480" 
d="M430 268c0 -250 -118 -278 -185 -278c-50 0 -85 22 -85 22v-202h-80v720h59l13 -48c15 19 53 58 118 58c75 0 160 -36 160 -272zM350 268c0 185 -43 206 -100 206c-46 0 -75 -30 -90 -44v-358s42 -18 73 -18c52 0 117 24 117 214z" />
    <glyph glyph-name="q" unicode="q" horiz-adv-x="490" 
d="M410 -190h-80v215c-18 -12 -52 -35 -100 -35c-66 0 -180 27 -180 278c0 232 112 272 180 272c65 0 99 -40 110 -57l15 47h55v-720zM330 83v345s-36 45 -85 45c-63 0 -115 -34 -115 -205c0 -180 54 -213 115 -213c26 0 63 17 85 28z" />
    <glyph glyph-name="r" unicode="r" horiz-adv-x="288" 
d="M278 448c0 0 -32 8 -55 8c-38 0 -63 -31 -63 -31v-425h-80v530h59l13 -56s23 66 92 66c13 0 34 -6 34 -6v-86z" />
    <glyph glyph-name="s" unicode="s" horiz-adv-x="324" 
d="M289 140c0 -128 -90 -150 -160 -150c-42 0 -91 18 -91 18v71s58 -21 91 -21c49 0 84 22 84 82c0 48 -25 68 -56 91l-38 28c-38 28 -74 63 -74 137c0 91 60 144 144 144c55 0 90 -19 90 -19v-67s-41 19 -87 19c-44 0 -72 -26 -72 -74c0 -42 22 -61 51 -83l44 -33
c39 -29 74 -67 74 -143z" />
    <glyph glyph-name="t" unicode="t" horiz-adv-x="270" 
d="M260 5c0 0 -44 -15 -80 -15c-58 0 -110 18 -110 113v366h-60v61h60l4 120l76 40v-160h90l-10 -61h-80v-367c0 -36 15 -44 41 -44c19 0 69 13 69 13v-66z" />
    <glyph glyph-name="u" unicode="u" horiz-adv-x="495" 
d="M415 0h-63l-11 51c-19 -18 -72 -61 -131 -61c-71 0 -135 28 -135 145v395h80v-385c0 -68 23 -84 65 -84c46 0 95 34 115 48v421h80v-530z" />
    <glyph glyph-name="v" unicode="v" horiz-adv-x="410" 
d="M405 530l-153 -530h-94l-153 530h92l79 -340c16 -69 29 -147 29 -147s13 78 29 147l79 340h92z" />
    <glyph glyph-name="w" unicode="w" horiz-adv-x="690" 
d="M670 530l-116 -530h-100l-67 281c-18 76 -42 196 -42 196s-24 -115 -43 -195l-67 -282h-99l-116 530h93l47 -304c11 -72 24 -184 24 -184s17 110 35 184l75 304h103l74 -304c21 -87 35 -184 35 -184s13 114 24 184l49 304h91z" />
    <glyph glyph-name="x" unicode="x" horiz-adv-x="430" 
d="M425 0h-103l-107 229l-107 -229h-103l162 285l-152 245h105l95 -199l95 199h105l-153 -245z" />
    <glyph glyph-name="y" unicode="y" horiz-adv-x="395" 
d="M390 530l-164 -625c-23 -89 -78 -105 -129 -105c-34 0 -76 12 -76 12v66s51 -11 69 -11c32 0 55 8 68 62l15 62l-168 539h95l107 -443l94 443h89z" />
    <glyph glyph-name="z" unicode="z" horiz-adv-x="363" 
d="M325 0h-285v55l201 408h-201v67h285v-55l-201 -408h201v-67z" />
    <glyph glyph-name="braceleft" unicode="{" horiz-adv-x="333" 
d="M313 -150h-7c-133 0 -193 58 -193 203v129c0 112 -93 114 -93 114v70s93 7 93 114v127c0 145 60 203 193 203h7v-68h-17c-81 0 -103 -46 -103 -138v-119c0 -87 -50 -138 -107 -155c61 -15 107 -67 107 -153v-121c0 -92 22 -138 103 -138h17v-68z" />
    <glyph glyph-name="bar" unicode="|" horiz-adv-x="240" 
d="M160 -110h-80v920h80v-920z" />
    <glyph glyph-name="braceright" unicode="}" horiz-adv-x="333" 
d="M313 296c0 0 -93 -2 -93 -114v-129c0 -145 -60 -203 -193 -203h-7v68h17c81 0 103 46 103 138v121c0 86 46 138 107 153c-57 17 -107 68 -107 155v119c0 92 -22 138 -103 138h-17v68h7c133 0 193 -58 193 -203v-127c0 -107 93 -114 93 -114v-70z" />
    <glyph glyph-name="asciitilde" unicode="~" horiz-adv-x="620" 
d="M550 300c0 0 -47 -38 -118 -38c-79 0 -151 67 -230 67c-72 0 -132 -39 -132 -39v79s60 40 133 40c95 0 159 -68 231 -68c53 0 116 38 116 38v-79z" />
    <glyph glyph-name="exclamdown" unicode="&#xa1;" horiz-adv-x="291" 
d="M211 472c0 -37 -29 -67 -66 -67s-65 30 -65 67c0 38 28 68 65 68s66 -31 66 -68zM193 -170h-96l15 460h66z" />
    <glyph glyph-name="cent" unicode="&#xa2;" horiz-adv-x="340" 
d="M320 9c0 0 -30 -11 -65 -16v-103h-70v103c-63 12 -135 64 -135 269c0 191 71 253 135 271v107h70v-101c41 -3 65 -18 65 -18v-68s-42 19 -89 19c-49 0 -101 -42 -101 -210c0 -153 50 -202 93 -202c49 0 97 20 97 20v-71z" />
    <glyph glyph-name="sterling" unicode="&#xa3;" horiz-adv-x="399" 
d="M379 0h-359v71h90v269h-90v66h90v94c0 145 95 170 157 170c63 0 112 -21 112 -21v-66s-62 19 -112 19c-43 0 -79 -12 -79 -102v-94h141l-10 -66h-131v-269h191v-71z" />
    <glyph glyph-name="fraction" unicode="&#x2044;" horiz-adv-x="190" 
d="M310 810l-360 -920h-70l360 920h70z" />
    <glyph glyph-name="yen" unicode="&#xa5;" horiz-adv-x="400" 
d="M397 660l-127 -297h95v-74h-125v-87h125v-74h-125v-128h-80v128h-125v74h125v87h-125v74h95l-127 297h98l99 -303l99 303h98z" />
    <glyph glyph-name="florin" unicode="&#x192;" horiz-adv-x="260" 
d="M366 644l-11 -62s-48 24 -83 24c-34 0 -58 -23 -66 -69l-12 -67h90l-20 -61h-80l-69 -391c-21 -118 -68 -208 -227 -208l11 64c84 10 121 58 135 138l70 397h-60l10 61h60l12 65c19 102 72 135 143 135c51 0 97 -26 97 -26z" />
    <glyph glyph-name="section" unicode="&#xa7;" horiz-adv-x="410" 
d="M360 279c0 -52 -44 -97 -80 -118c32 -24 62 -59 62 -115c0 -92 -59 -148 -164 -148c-53 0 -120 19 -120 19v69s78 -24 117 -24c55 0 89 31 89 79c0 46 -23 68 -60 88l-55 30c-40 22 -99 55 -99 130c0 49 44 91 81 115c-23 15 -63 52 -63 118c0 103 67 148 164 148
c67 0 120 -26 120 -26v-65s-62 26 -117 26c-51 0 -89 -18 -89 -78c0 -56 40 -72 73 -92l42 -26c50 -31 99 -63 99 -130zM280 275c0 39 -21 59 -52 76l-50 27c-24 -19 -48 -52 -48 -85c0 -39 23 -60 52 -75l56 -29c21 19 42 54 42 86z" />
    <glyph glyph-name="currency" unicode="&#xa4;" 
d="M450 19c0 0 -62 -29 -122 -29c-81 0 -184 22 -219 223h-89l8 68h73s-1 29 -1 49c0 26 5 64 5 64h-83l8 68h84c32 176 154 208 224 208c68 0 112 -24 112 -24v-69s-52 24 -112 24c-58 0 -125 -25 -147 -139h209l-8 -68h-207s-5 -38 -5 -64c0 -19 1 -49 1 -49h217l-8 -68
h-202c20 -117 75 -154 140 -154c51 0 122 30 122 30v-70z" />
    <glyph glyph-name="quotesingle" unicode="'" horiz-adv-x="243" 
d="M173 700l-21 -275h-62l-20 275h103z" />
    <glyph glyph-name="quotedblleft" unicode="&#x201c;" horiz-adv-x="436" 
d="M366 700l-18 -275h-108l64 275h62zM186 700l-18 -275h-108l64 275h62z" />
    <glyph glyph-name="guillemotleft" unicode="&#xab;" 
d="M420 110l-180 215v20l180 215v-124l-95 -99l95 -103v-124zM220 110l-180 215v20l180 215v-124l-95 -99l95 -103v-124z" />
    <glyph glyph-name="guilsinglleft" unicode="&#x2039;" horiz-adv-x="270" 
d="M220 110l-180 215v20l180 215v-124l-95 -99l95 -103v-124z" />
    <glyph glyph-name="guilsinglright" unicode="&#x203a;" horiz-adv-x="270" 
d="M230 325l-180 -215v124l95 103l-95 99v124l180 -215v-20z" />
    <glyph glyph-name="fi" unicode="&#xfb01;" horiz-adv-x="490" 
d="M434 670c0 -30 -24 -55 -54 -55s-54 25 -54 55s24 55 54 55s54 -25 54 -55zM420 0h-80v469h-190v-469h-80v469h-60v61h60v65c0 102 58 135 129 135c51 0 91 -16 91 -16v-62s-53 14 -88 14c-34 0 -52 -23 -52 -69v-67h270v-530z" />
    <glyph glyph-name="fl" unicode="&#xfb02;" horiz-adv-x="495" 
d="M420 0h-80v632s-67 34 -117 34c-52 0 -73 -23 -73 -84v-52h80l-10 -61h-70v-469h-80v469h-60v61h60v48c0 121 65 152 153 152c56 0 119 -37 119 -37l78 27v-720z" />
    <glyph glyph-name="endash" unicode="&#x2013;" horiz-adv-x="560" 
d="M490 305h-420v75h420v-75z" />
    <glyph glyph-name="dagger" unicode="&#x2020;" horiz-adv-x="490" 
d="M440 455h-160v-455h-80v455h-150v75h150v190h80v-190h160v-75z" />
    <glyph glyph-name="daggerdbl" unicode="&#x2021;" horiz-adv-x="490" 
d="M440 190h-160v-190h-80v190h-150v75h150v190h-150v75h150v190h80v-190h160v-75h-160v-190h160v-75z" />
    <glyph glyph-name="periodcentered" unicode="&#xb7;" horiz-adv-x="291" 
d="M211 378c0 -38 -28 -68 -65 -68s-66 31 -66 68s29 67 66 67s65 -30 65 -67z" />
    <glyph glyph-name="paragraph" unicode="&#xb6;" horiz-adv-x="530" 
d="M450 0h-70v700h70v-700zM310 0h-70v224c-106 0 -190 61 -190 236c0 192 92 240 210 240h50v-700zM240 284v348c-71 0 -110 -32 -110 -172c0 -127 34 -176 110 -176z" />
    <glyph glyph-name="bullet" unicode="&#x2022;" horiz-adv-x="341" 
d="M261 378c0 -50 -38 -92 -90 -92s-91 42 -91 92c0 51 40 91 91 91c52 0 90 -41 90 -91z" />
    <glyph glyph-name="quotesinglbase" unicode="&#x201a;" horiz-adv-x="256" 
d="M196 125l-64 -275h-62l18 275h108z" />
    <glyph glyph-name="quotedblbase" unicode="&#x201e;" horiz-adv-x="436" 
d="M376 125l-64 -275h-62l18 275h108zM196 125l-64 -275h-62l18 275h108z" />
    <glyph glyph-name="quotedblright" unicode="&#x201d;" horiz-adv-x="436" 
d="M376 700l-64 -275h-62l18 275h108zM196 700l-64 -275h-62l18 275h108z" />
    <glyph glyph-name="guillemotright" unicode="&#xbb;" 
d="M430 325l-180 -215v124l95 103l-95 99v124l180 -215v-20zM230 325l-180 -215v124l95 103l-95 99v124l180 -215v-20z" />
    <glyph glyph-name="ellipsis" unicode="&#x2026;" horiz-adv-x="753" 
d="M673 58c0 -38 -28 -68 -65 -68s-66 31 -66 68s29 67 66 67s65 -30 65 -67zM442 58c0 -38 -28 -68 -65 -68s-66 31 -66 68s29 67 66 67s65 -30 65 -67zM211 58c0 -38 -28 -68 -65 -68s-66 31 -66 68s29 67 66 67s65 -30 65 -67z" />
    <glyph glyph-name="perthousand" unicode="&#x2030;" horiz-adv-x="1081" 
d="M1041 170c0 -141 -62 -180 -137 -180c-73 0 -137 34 -137 180c0 141 67 180 137 180c73 0 137 -40 137 -180zM707 170c0 -141 -62 -180 -137 -180c-73 0 -137 34 -137 180c0 141 67 180 137 180c73 0 137 -40 137 -180zM550 710l-280 -720h-72l280 720h72zM314 530
c0 -141 -62 -180 -137 -180c-73 0 -137 34 -137 180c0 141 67 180 137 180c73 0 137 -40 137 -180zM971 170c0 101 -23 126 -67 126c-40 0 -67 -23 -67 -126c0 -99 23 -124 67 -124c39 0 67 19 67 124zM637 170c0 101 -23 126 -67 126c-40 0 -67 -23 -67 -126
c0 -99 23 -124 67 -124c39 0 67 19 67 124zM244 530c0 101 -23 126 -67 126c-40 0 -67 -23 -67 -126c0 -99 23 -124 67 -124c39 0 67 19 67 124z" />
    <glyph glyph-name="questiondown" unicode="&#xbf;" horiz-adv-x="338" 
d="M254 472c0 -37 -29 -67 -66 -67s-65 30 -65 67c0 38 28 68 65 68s66 -31 66 -68zM283 -156c0 0 -43 -24 -102 -24c-74 0 -131 27 -131 128c0 75 32 103 62 141c26 33 50 64 50 134c0 20 -2 42 -7 67h74c3 -23 5 -43 5 -62c0 -90 -32 -135 -62 -173
c-25 -32 -44 -60 -44 -105c0 -47 24 -60 63 -60c41 0 92 20 92 20v-66z" />
    <glyph glyph-name="grave" unicode="`" horiz-adv-x="266" 
d="M236 620h-82l-124 150h108z" />
    <glyph glyph-name="acute" unicode="&#xb4;" horiz-adv-x="266" 
d="M236 770l-124 -150h-82l98 150h108z" />
    <glyph glyph-name="circumflex" unicode="&#x2c6;" horiz-adv-x="406" 
d="M376 620h-102l-71 92l-71 -92h-102l138 150h70z" />
    <glyph glyph-name="tilde" unicode="&#x2dc;" horiz-adv-x="360" 
d="M330 655c-27 -17 -50 -26 -73 -26s-47 8 -74 26c-30 20 -54 30 -77 30s-45 -10 -76 -30v80c31 18 59 28 87 28c27 0 53 -9 83 -28c27 -17 47 -26 66 -26s37 9 64 25v-79z" />
    <glyph glyph-name="macron" unicode="&#xaf;" horiz-adv-x="335" 
d="M305 655h-275v80h275v-80z" />
    <glyph glyph-name="breve" unicode="&#x2d8;" horiz-adv-x="372" 
d="M342 770c0 -110 -60 -160 -156 -160c-90 0 -156 41 -156 160h75c0 -70 41 -100 81 -100c34 0 81 28 81 100h75z" />
    <glyph glyph-name="dotaccent" unicode="&#x2d9;" horiz-adv-x="191" 
d="M161 683c0 -38 -28 -68 -65 -68s-66 31 -66 68s29 67 66 67s65 -30 65 -67z" />
    <glyph glyph-name="dieresis" unicode="&#xa8;" horiz-adv-x="337" 
d="M307 675c0 -30 -24 -55 -54 -55s-54 25 -54 55s24 55 54 55s54 -25 54 -55zM138 675c0 -30 -24 -55 -54 -55s-54 25 -54 55s24 55 54 55s54 -25 54 -55z" />
    <glyph glyph-name="ring" unicode="&#x2da;" horiz-adv-x="286" 
d="M256 683c0 -74 -47 -112 -113 -112s-113 36 -113 112c0 75 48 112 113 112c60 0 113 -38 113 -112zM196 683c0 39 -18 63 -53 63c-36 0 -53 -23 -53 -63c0 -41 19 -63 53 -63c33 0 53 22 53 63z" />
    <glyph glyph-name="cedilla" unicode="&#xb8;" horiz-adv-x="244" 
d="M214 -90c0 -79 -58 -100 -106 -100c-38 0 -78 17 -78 17v62s40 -16 69 -16s43 12 43 45c0 43 -24 92 -24 92h52s44 -44 44 -100z" />
    <glyph glyph-name="hungarumlaut" unicode="&#x2dd;" horiz-adv-x="354" 
d="M324 770l-94 -150h-62l58 150h98zM186 770l-94 -150h-62l58 150h98z" />
    <glyph glyph-name="ogonek" unicode="&#x2db;" horiz-adv-x="244" 
d="M214 -173c0 0 -40 -17 -78 -17c-47 0 -106 21 -106 100c0 56 44 100 44 100h52s-24 -49 -24 -92c0 -32 14 -45 43 -45s69 16 69 16v-62z" />
    <glyph glyph-name="caron" unicode="&#x2c7;" horiz-adv-x="406" 
d="M376 770l-138 -150h-70l-138 150h102l71 -92l71 92h102z" />
    <glyph glyph-name="emdash" unicode="&#x2014;" horiz-adv-x="660" 
d="M590 305h-520v75h520v-75z" />
    <glyph glyph-name="AE" unicode="&#xc6;" horiz-adv-x="569" 
d="M539 0h-260v166h-135l-47 -166h-92l229 700h305v-74h-180v-216h170v-68h-170v-268h180v-74zM279 234v420s-26 -101 -44 -166l-72 -254h116z" />
    <glyph glyph-name="ordfeminine" unicode="&#xaa;" horiz-adv-x="328" 
d="M288 259h-66l-9 39s-34 -47 -78 -47c-56 0 -115 23 -115 143c0 117 94 138 145 138h46v58c0 51 -12 57 -49 57c-50 0 -109 -18 -109 -18v61s56 20 121 20c49 0 114 -9 114 -118v-333zM288 0h-268v75h268v-75zM211 355v128l-28 -1c-45 -2 -86 -7 -86 -86
c0 -67 18 -83 53 -83c34 0 61 42 61 42z" />
    <glyph glyph-name="Lslash" unicode="&#x141;" horiz-adv-x="330" 
d="M320 74l-10 -74h-230v324l-55 -48v88l55 48v288h80v-218l95 83v-88l-95 -83v-320h160z" />
    <glyph glyph-name="Oslash" unicode="&#xd8;" 
d="M430 350c0 -317 -105 -360 -195 -360c-29 0 -59 4 -87 20l-41 -120h-62l56 163c-36 51 -61 141 -61 297c0 320 110 360 195 360c28 0 58 -5 86 -22l42 122h62l-57 -166c37 -51 62 -141 62 -294zM297 619c-18 22 -39 31 -62 31c-63 0 -115 -58 -115 -300
c0 -82 7 -144 19 -189zM350 350c0 83 -6 144 -18 190l-158 -457c19 -24 40 -33 61 -33c55 0 115 62 115 300z" />
    <glyph glyph-name="OE" unicode="&#x152;" horiz-adv-x="549" 
d="M519 0h-232s-31 -10 -52 -10c-90 0 -195 41 -195 360c0 320 110 360 195 360c16 0 52 -10 52 -10h232v-74h-180v-216h170v-68h-170v-268h180v-74zM259 54v592s-16 4 -24 4c-63 0 -115 -58 -115 -300c0 -237 59 -300 115 -300c8 0 24 4 24 4z" />
    <glyph glyph-name="ordmasculine" unicode="&#xba;" horiz-adv-x="393" 
d="M353 479c0 -188 -77 -230 -156 -230s-157 42 -157 230c0 178 78 231 157 231s156 -44 156 -231zM353 0h-313v75h313v-75zM276 479c0 150 -33 170 -79 170s-80 -26 -80 -170c0 -146 42 -168 80 -168s79 23 79 168z" />
    <glyph glyph-name="ae" unicode="&#xe6;" horiz-adv-x="656" 
d="M615 265l-1 -23h-250c0 -167 59 -183 106 -183c37 0 112 19 112 19v-70s-62 -18 -112 -18c-54 0 -115 14 -148 84c-29 -47 -79 -84 -134 -84c-70 0 -143 27 -143 171c0 140 112 165 173 165h67v80c0 61 -26 68 -70 68c-60 0 -130 -25 -130 -25v66s66 25 144 25
c40 0 88 -11 115 -56c32 37 75 56 118 56c92 0 162 -65 153 -275zM538 294c0 144 -28 188 -76 188c-66 0 -94 -61 -97 -188h173zM285 151v126l-45 -1c-70 -2 -115 -17 -115 -112s30 -109 75 -109c39 0 85 42 85 96z" />
    <glyph glyph-name="dotlessi" unicode="&#x131;" horiz-adv-x="220" 
d="M150 0h-80v530h80v-530z" />
    <glyph glyph-name="lslash" unicode="&#x142;" horiz-adv-x="240" 
d="M215 449l-55 -50v-399h-80v326l-55 -50v88l55 50v306h80v-233l55 50v-88z" />
    <glyph glyph-name="oslash" unicode="&#xf8;" horiz-adv-x="454" 
d="M414 265c0 -228 -92 -275 -187 -275c-26 0 -51 3 -74 13l-46 -113h-62l59 146c-38 39 -64 110 -64 229c0 218 93 275 187 275c25 0 50 -3 74 -13l46 113h62l-59 -146c38 -39 64 -110 64 -229zM277 465c-15 10 -33 14 -50 14c-55 0 -107 -42 -107 -214
c0 -62 8 -107 20 -139zM334 265c0 65 -7 111 -18 143l-137 -339c16 -12 33 -17 48 -17c45 0 107 39 107 213z" />
    <glyph glyph-name="oe" unicode="&#x153;" horiz-adv-x="705" 
d="M664 265l-1 -23h-250c0 -167 59 -183 106 -183c37 0 112 19 112 19v-70s-62 -18 -112 -18c-52 0 -112 14 -148 80c-36 -59 -84 -80 -144 -80c-95 0 -187 49 -187 275c0 218 93 275 187 275c62 0 112 -22 147 -83c33 63 85 83 137 83c92 0 162 -65 153 -275zM587 294
c0 144 -28 188 -76 188c-66 0 -94 -61 -97 -188h173zM334 265c0 179 -55 214 -107 214c-55 0 -107 -42 -107 -214c0 -175 62 -213 107 -213s107 39 107 213z" />
    <glyph glyph-name="germandbls" unicode="&#xdf;" horiz-adv-x="504" 
d="M474 141c0 -121 -84 -151 -159 -151c-51 0 -107 20 -107 20v70s69 -22 107 -22c48 0 81 23 81 83c0 40 -22 65 -51 85l-49 34c-35 24 -66 53 -66 116c0 53 27 83 52 112c21 24 40 59 40 98c0 53 -26 80 -74 80c-54 0 -88 -36 -88 -121v-545h-80v545c0 126 61 185 165 185
c100 0 159 -50 159 -139c0 -67 -36 -106 -65 -135c-20 -20 -36 -41 -36 -68c0 -28 11 -39 36 -57l49 -35c44 -31 86 -76 86 -155z" />
    <glyph glyph-name="Ydieresis" unicode="&#x178;" horiz-adv-x="400" 
d="M339 805c0 -30 -24 -55 -54 -55s-54 25 -54 55s24 55 54 55s54 -25 54 -55zM170 805c0 -30 -24 -55 -54 -55s-54 25 -54 55s24 55 54 55s54 -25 54 -55zM410 700l-170 -412v-288h-80v288l-170 412h98l112 -342l112 342h98z" />
    <glyph glyph-name="trademark" unicode="&#x2122;" horiz-adv-x="725" 
d="M655 280h-67l-1 292l-112 -213l-110 209l-3 -288h-69l15 359h-115v-359h-69v359h-104v61h333l122 -228l120 228h44z" />
    <glyph glyph-name="zcaron" unicode="&#x17e;" horiz-adv-x="363" 
d="M355 770l-138 -150h-70l-138 150h102l71 -92l71 92h102zM325 0h-285v55l201 408h-201v67h285v-55l-201 -408h201v-67z" />
    <glyph glyph-name="Zcaron" unicode="&#x17d;" horiz-adv-x="368" 
d="M357 870l-138 -120h-70l-138 120h104l69 -72l69 72h104zM330 0h-290v61l210 570h-210v69h290v-61l-210 -570h210v-69z" />
    <glyph glyph-name="scaron" unicode="&#x161;" horiz-adv-x="324" 
d="M345 770l-138 -150h-70l-138 150h102l71 -92l71 92h102zM289 140c0 -128 -90 -150 -160 -150c-42 0 -91 18 -91 18v71s58 -21 91 -21c49 0 84 22 84 82c0 48 -25 68 -56 91l-38 28c-38 28 -74 63 -74 137c0 91 60 144 144 144c55 0 90 -19 90 -19v-67s-41 19 -87 19
c-44 0 -72 -26 -72 -74c0 -42 22 -61 51 -83l44 -33c39 -29 74 -67 74 -143z" />
    <glyph glyph-name="Scaron" unicode="&#x160;" horiz-adv-x="360" 
d="M373 870l-138 -120h-70l-138 120h104l69 -72l69 72h104zM325 179c0 -167 -109 -189 -188 -189c-50 0 -100 18 -100 18v74s55 -20 100 -20c59 0 108 22 108 113c0 74 -34 105 -73 141l-58 54c-37 34 -69 83 -69 159c0 141 93 181 170 181c45 0 93 -16 93 -16v-71
s-49 18 -93 18c-53 0 -92 -33 -92 -104c0 -59 26 -90 59 -121l54 -51c45 -43 89 -93 89 -186z" />
    <glyph glyph-name="ydieresis" unicode="&#xff;" horiz-adv-x="395" 
d="M339 675c0 -30 -24 -55 -54 -55s-54 25 -54 55s24 55 54 55s54 -25 54 -55zM170 675c0 -30 -24 -55 -54 -55s-54 25 -54 55s24 55 54 55s54 -25 54 -55zM390 530l-164 -625c-23 -89 -78 -105 -129 -105c-34 0 -76 12 -76 12v66s51 -11 69 -11c32 0 55 8 68 62l15 62
l-168 539h95l107 -443l94 443h89z" />
    <glyph glyph-name="thorn" unicode="&#xfe;" horiz-adv-x="480" 
d="M430 268c0 -250 -118 -278 -185 -278c-38 0 -69 15 -85 26v-206h-80v910h80v-230c13 14 49 50 110 50c75 0 160 -36 160 -272zM350 268c0 185 -43 206 -100 206c-46 0 -75 -27 -90 -41v-363c18 -6 51 -16 73 -16c52 0 117 24 117 214z" />
    <glyph glyph-name="yacute" unicode="&#xfd;" horiz-adv-x="395" 
d="M366 770l-124 -150h-82l98 150h108zM390 530l-164 -625c-23 -89 -78 -105 -129 -105c-34 0 -76 12 -76 12v66s51 -11 69 -11c32 0 55 8 68 62l15 62l-168 539h95l107 -443l94 443h89z" />
    <glyph glyph-name="udieresis" unicode="&#xfc;" horiz-adv-x="495" 
d="M386 675c0 -30 -24 -55 -54 -55s-54 25 -54 55s24 55 54 55s54 -25 54 -55zM217 675c0 -30 -24 -55 -54 -55s-54 25 -54 55s24 55 54 55s54 -25 54 -55zM415 0h-63l-11 51c-19 -18 -72 -61 -131 -61c-71 0 -135 28 -135 145v395h80v-385c0 -68 23 -84 65 -84
c46 0 95 34 115 48v421h80v-530z" />
    <glyph glyph-name="ucircumflex" unicode="&#xfb;" horiz-adv-x="495" 
d="M421 620h-102l-71 92l-71 -92h-102l138 150h70zM415 0h-63l-11 51c-19 -18 -72 -61 -131 -61c-71 0 -135 28 -135 145v395h80v-385c0 -68 23 -84 65 -84c46 0 95 34 115 48v421h80v-530z" />
    <glyph glyph-name="uacute" unicode="&#xfa;" horiz-adv-x="495" 
d="M406 770l-124 -150h-82l98 150h108zM415 0h-63l-11 51c-19 -18 -72 -61 -131 -61c-71 0 -135 28 -135 145v395h80v-385c0 -68 23 -84 65 -84c46 0 95 34 115 48v421h80v-530z" />
    <glyph glyph-name="ugrave" unicode="&#xf9;" horiz-adv-x="495" 
d="M296 620h-82l-124 150h108zM415 0h-63l-11 51c-19 -18 -72 -61 -131 -61c-71 0 -135 28 -135 145v395h80v-385c0 -68 23 -84 65 -84c46 0 95 34 115 48v421h80v-530z" />
    <glyph glyph-name="divide" unicode="&#xf7;" horiz-adv-x="531" 
d="M331 543c0 -38 -28 -68 -65 -68s-66 31 -66 68s29 67 66 67s65 -30 65 -67zM461 305h-391v75h391v-75zM331 128c0 -38 -28 -68 -65 -68s-66 31 -66 68s29 67 66 67s65 -30 65 -67z" />
    <glyph glyph-name="odieresis" unicode="&#xf6;" horiz-adv-x="454" 
d="M366 675c0 -30 -24 -55 -54 -55s-54 25 -54 55s24 55 54 55s54 -25 54 -55zM197 675c0 -30 -24 -55 -54 -55s-54 25 -54 55s24 55 54 55s54 -25 54 -55zM414 265c0 -228 -92 -275 -187 -275s-187 49 -187 275c0 218 88 275 187 275c94 0 187 -50 187 -275zM334 265
c0 179 -52 214 -107 214c-58 0 -107 -42 -107 -214c0 -175 62 -213 107 -213s107 39 107 213z" />
    <glyph glyph-name="otilde" unicode="&#xf5;" horiz-adv-x="454" 
d="M377 655c-27 -17 -50 -26 -73 -26s-47 8 -74 26c-30 20 -54 30 -77 30s-45 -10 -76 -30v80c31 18 59 28 87 28c27 0 53 -9 83 -28c27 -17 47 -26 66 -26s37 9 64 25v-79zM414 265c0 -228 -92 -275 -187 -275s-187 49 -187 275c0 218 88 275 187 275
c94 0 187 -50 187 -275zM334 265c0 179 -52 214 -107 214c-58 0 -107 -42 -107 -214c0 -175 62 -213 107 -213s107 39 107 213z" />
    <glyph glyph-name="ocircumflex" unicode="&#xf4;" horiz-adv-x="454" 
d="M400 620h-102l-71 92l-71 -92h-102l138 150h70zM414 265c0 -228 -92 -275 -187 -275s-187 49 -187 275c0 218 88 275 187 275c94 0 187 -50 187 -275zM334 265c0 179 -52 214 -107 214c-58 0 -107 -42 -107 -214c0 -175 62 -213 107 -213s107 39 107 213z" />
    <glyph glyph-name="oacute" unicode="&#xf3;" horiz-adv-x="454" 
d="M386 770l-124 -150h-82l98 150h108zM414 265c0 -228 -92 -275 -187 -275s-187 49 -187 275c0 218 88 275 187 275c94 0 187 -50 187 -275zM334 265c0 179 -52 214 -107 214c-58 0 -107 -42 -107 -214c0 -175 62 -213 107 -213s107 39 107 213z" />
    <glyph glyph-name="ograve" unicode="&#xf2;" horiz-adv-x="454" 
d="M266 620h-82l-124 150h108zM414 265c0 -228 -92 -275 -187 -275s-187 49 -187 275c0 218 88 275 187 275c94 0 187 -50 187 -275zM334 265c0 179 -52 214 -107 214c-58 0 -107 -42 -107 -214c0 -175 62 -213 107 -213s107 39 107 213z" />
    <glyph glyph-name="ntilde" unicode="&#xf1;" horiz-adv-x="505" 
d="M403 655c-27 -17 -50 -26 -73 -26s-47 8 -74 26c-30 20 -54 30 -77 30s-45 -10 -76 -30v80c31 18 59 28 87 28c27 0 53 -9 83 -28c27 -17 47 -26 66 -26s37 9 64 25v-79zM430 0h-80v396c0 51 -12 72 -55 72c-60 0 -135 -43 -135 -43v-425h-80v530h57l20 -55s77 65 156 65
c76 0 117 -41 117 -138v-402z" />
    <glyph glyph-name="eth" unicode="&#xf0;" 
d="M420 280c0 -235 -80 -290 -185 -290c-84 0 -185 27 -185 233c0 167 76 227 175 227c78 0 111 -46 111 -46c-10 66 -25 116 -46 152l-95 -76v82l54 43c-36 29 -83 43 -147 51v64c91 -5 155 -30 202 -70l86 68v-82l-42 -34c62 -87 72 -208 72 -322zM340 270
c0 19 -3 80 -3 80s-47 37 -102 37c-83 0 -105 -51 -105 -164c0 -144 39 -169 105 -169c72 0 105 42 105 216z" />
    <glyph glyph-name="idieresis" unicode="&#xef;" horiz-adv-x="220" 
d="M239 675c0 -30 -24 -55 -54 -55s-54 25 -54 55s24 55 54 55s54 -25 54 -55zM90 675c0 -30 -24 -55 -54 -55s-54 25 -54 55s24 55 54 55s54 -25 54 -55zM150 0h-80v530h80v-530z" />
    <glyph glyph-name="icircumflex" unicode="&#xee;" horiz-adv-x="220" 
d="M283 620h-102l-71 92l-71 -92h-102l138 150h70zM150 0h-80v530h80v-530z" />
    <glyph glyph-name="iacute" unicode="&#xed;" horiz-adv-x="220" 
d="M278 770l-124 -150h-82l98 150h108zM150 0h-80v530h80v-530z" />
    <glyph glyph-name="igrave" unicode="&#xec;" horiz-adv-x="220" 
d="M153 620h-82l-124 150h108zM150 0h-80v530h80v-530z" />
    <glyph glyph-name="edieresis" unicode="&#xeb;" horiz-adv-x="421" 
d="M354 675c0 -30 -24 -55 -54 -55s-54 25 -54 55s24 55 54 55s54 -25 54 -55zM185 675c0 -30 -24 -55 -54 -55s-54 25 -54 55s24 55 54 55s54 -25 54 -55zM380 265l-1 -23h-250c0 -167 59 -183 106 -183c37 0 112 19 112 19v-70s-62 -18 -112 -18c-85 0 -185 30 -185 270
c0 220 86 280 177 280c92 0 162 -64 153 -275zM303 294c0 144 -28 188 -76 188c-66 0 -94 -61 -97 -188h173z" />
    <glyph glyph-name="ecircumflex" unicode="&#xea;" horiz-adv-x="421" 
d="M393 620h-102l-71 92l-71 -92h-102l138 150h70zM380 265l-1 -23h-250c0 -167 59 -183 106 -183c37 0 112 19 112 19v-70s-62 -18 -112 -18c-85 0 -185 30 -185 270c0 220 86 280 177 280c92 0 162 -64 153 -275zM303 294c0 144 -28 188 -76 188c-66 0 -94 -61 -97 -188
h173z" />
    <glyph glyph-name="eacute" unicode="&#xe9;" horiz-adv-x="421" 
d="M386 770l-124 -150h-82l98 150h108zM380 265l-1 -23h-250c0 -167 59 -183 106 -183c37 0 112 19 112 19v-70s-62 -18 -112 -18c-85 0 -185 30 -185 270c0 220 86 280 177 280c92 0 162 -64 153 -275zM303 294c0 144 -28 188 -76 188c-66 0 -94 -61 -97 -188h173z" />
    <glyph glyph-name="egrave" unicode="&#xe8;" horiz-adv-x="421" 
d="M266 620h-82l-124 150h108zM380 265l-1 -23h-250c0 -167 59 -183 106 -183c37 0 112 19 112 19v-70s-62 -18 -112 -18c-85 0 -185 30 -185 270c0 220 86 280 177 280c92 0 162 -64 153 -275zM303 294c0 144 -28 188 -76 188c-66 0 -94 -61 -97 -188h173z" />
    <glyph glyph-name="ccedilla" unicode="&#xe7;" horiz-adv-x="340" 
d="M320 11c0 0 -42 -17 -84 -20c13 -18 28 -48 28 -81c0 -79 -58 -100 -106 -100c-38 0 -78 17 -78 17v62s40 -16 69 -16s43 12 43 45c0 29 -11 60 -18 78c-60 16 -124 72 -124 266c0 249 121 278 188 278c52 0 82 -19 82 -19v-68s-42 19 -89 19c-49 0 -101 -42 -101 -210
c0 -153 46 -202 93 -202c49 0 97 22 97 22v-71z" />
    <glyph glyph-name="aring" unicode="&#xe5;" horiz-adv-x="440" 
d="M344 683c0 -74 -47 -112 -113 -112s-113 36 -113 112c0 75 48 112 113 112c60 0 113 -38 113 -112zM365 0h-67l-10 52c-15 -21 -53 -62 -105 -62c-66 0 -138 27 -138 171c0 140 112 165 173 165h67v75c0 58 -18 73 -70 73c-60 0 -130 -25 -130 -25v66s66 25 144 25
c72 0 136 -21 136 -149v-391zM284 683c0 39 -18 63 -53 63c-36 0 -53 -23 -53 -63c0 -41 19 -63 53 -63c33 0 53 22 53 63zM285 111v166l-45 -1c-70 -2 -115 -17 -115 -112s30 -109 75 -109c35 0 69 36 85 56z" />
    <glyph glyph-name="adieresis" unicode="&#xe4;" horiz-adv-x="440" 
d="M359 675c0 -30 -24 -55 -54 -55s-54 25 -54 55s24 55 54 55s54 -25 54 -55zM190 675c0 -30 -24 -55 -54 -55s-54 25 -54 55s24 55 54 55s54 -25 54 -55zM365 0h-67l-10 52c-15 -21 -53 -62 -105 -62c-66 0 -138 27 -138 171c0 140 112 165 173 165h67v75
c0 58 -18 73 -70 73c-60 0 -130 -25 -130 -25v66s66 25 144 25c72 0 136 -21 136 -149v-391zM285 111v166l-45 -1c-70 -2 -115 -17 -115 -112s30 -109 75 -109c35 0 69 36 85 56z" />
    <glyph glyph-name="atilde" unicode="&#xe3;" horiz-adv-x="440" 
d="M360 655c-27 -17 -50 -26 -73 -26s-47 8 -74 26c-30 20 -54 30 -77 30s-45 -10 -76 -30v80c31 18 59 28 87 28c27 0 53 -9 83 -28c27 -17 47 -26 66 -26s37 9 64 25v-79zM365 0h-67l-10 52c-15 -21 -53 -62 -105 -62c-66 0 -138 27 -138 171c0 140 112 165 173 165h67v75
c0 58 -18 73 -70 73c-60 0 -130 -25 -130 -25v66s66 25 144 25c72 0 136 -21 136 -149v-391zM285 111v166l-45 -1c-70 -2 -115 -17 -115 -112s30 -109 75 -109c35 0 69 36 85 56z" />
    <glyph glyph-name="acircumflex" unicode="&#xe2;" horiz-adv-x="440" 
d="M393 620h-102l-71 92l-71 -92h-102l138 150h70zM365 0h-67l-10 52c-15 -21 -53 -62 -105 -62c-66 0 -138 27 -138 171c0 140 112 165 173 165h67v75c0 58 -18 73 -70 73c-60 0 -130 -25 -130 -25v66s66 25 144 25c72 0 136 -21 136 -149v-391zM285 111v166l-45 -1
c-70 -2 -115 -17 -115 -112s30 -109 75 -109c35 0 69 36 85 56z" />
    <glyph glyph-name="aacute" unicode="&#xe1;" horiz-adv-x="440" 
d="M386 770l-124 -150h-82l98 150h108zM365 0h-67l-10 52c-15 -21 -53 -62 -105 -62c-66 0 -138 27 -138 171c0 140 112 165 173 165h67v75c0 58 -18 73 -70 73c-60 0 -130 -25 -130 -25v66s66 25 144 25c72 0 136 -21 136 -149v-391zM285 111v166l-45 -1
c-70 -2 -115 -17 -115 -112s30 -109 75 -109c35 0 69 36 85 56z" />
    <glyph glyph-name="agrave" unicode="&#xe0;" horiz-adv-x="440" 
d="M276 620h-82l-124 150h108zM365 0h-67l-10 52c-15 -21 -53 -62 -105 -62c-66 0 -138 27 -138 171c0 140 112 165 173 165h67v75c0 58 -18 73 -70 73c-60 0 -130 -25 -130 -25v66s66 25 144 25c72 0 136 -21 136 -149v-391zM285 111v166l-45 -1c-70 -2 -115 -17 -115 -112
s30 -109 75 -109c35 0 69 36 85 56z" />
    <glyph glyph-name="Thorn" unicode="&#xde;" horiz-adv-x="440" 
d="M410 360c0 -167 -88 -228 -250 -233v-127h-80v700h80v-100h27c164 0 223 -75 223 -240zM330 360c0 142 -43 172 -139 172h-31v-346c133 5 170 59 170 174z" />
    <glyph glyph-name="Yacute" unicode="&#xdd;" horiz-adv-x="400" 
d="M356 870l-124 -120h-82l93 120h113zM410 700l-170 -412v-288h-80v288l-170 412h98l112 -342l112 342h98z" />
    <glyph glyph-name="Udieresis" unicode="&#xdc;" horiz-adv-x="496" 
d="M387 805c0 -30 -24 -55 -54 -55s-54 25 -54 55s24 55 54 55s54 -25 54 -55zM218 805c0 -30 -24 -55 -54 -55s-54 25 -54 55s24 55 54 55s54 -25 54 -55zM421 180c0 -137 -62 -190 -173 -190c-115 0 -173 49 -173 190v520h80v-535c0 -78 29 -110 93 -110
c57 0 93 31 93 110v535h80v-520z" />
    <glyph glyph-name="Ucircumflex" unicode="&#xdb;" horiz-adv-x="496" 
d="M421 750h-102l-71 67l-71 -67h-102l138 120h70zM421 180c0 -137 -62 -190 -173 -190c-115 0 -173 49 -173 190v520h80v-535c0 -78 29 -110 93 -110c57 0 93 31 93 110v535h80v-520z" />
    <glyph glyph-name="Uacute" unicode="&#xda;" horiz-adv-x="496" 
d="M406 870l-124 -120h-82l93 120h113zM421 180c0 -137 -62 -190 -173 -190c-115 0 -173 49 -173 190v520h80v-535c0 -78 29 -110 93 -110c57 0 93 31 93 110v535h80v-520z" />
    <glyph glyph-name="Ugrave" unicode="&#xd9;" horiz-adv-x="496" 
d="M296 750h-82l-124 120h113zM421 180c0 -137 -62 -190 -173 -190c-115 0 -173 49 -173 190v520h80v-535c0 -78 29 -110 93 -110c57 0 93 31 93 110v535h80v-520z" />
    <glyph glyph-name="multiply" unicode="&#xd7;" horiz-adv-x="516" 
d="M439 459l-124 -124l123 -123l-57 -57l-123 123l-124 -124l-57 57l124 124l-121 121l57 57l121 -121l124 124z" />
    <glyph glyph-name="Odieresis" unicode="&#xd6;" 
d="M374 805c0 -30 -24 -55 -54 -55s-54 25 -54 55s24 55 54 55s54 -25 54 -55zM205 805c0 -30 -24 -55 -54 -55s-54 25 -54 55s24 55 54 55s54 -25 54 -55zM430 350c0 -317 -105 -360 -195 -360s-195 41 -195 360c0 317 110 360 195 360c86 0 195 -43 195 -360zM350 350
c0 228 -51 300 -115 300c-63 0 -115 -69 -115 -300c0 -237 59 -300 115 -300c55 0 115 62 115 300z" />
    <glyph glyph-name="Otilde" unicode="&#xd5;" 
d="M385 795c-27 -17 -50 -26 -73 -26c-60 0 -96 36 -147 36c-23 0 -49 -10 -80 -30v80c31 18 59 28 87 28c60 0 97 -34 144 -34c19 0 42 9 69 25v-79zM430 350c0 -317 -105 -360 -195 -360s-195 41 -195 360c0 317 110 360 195 360c86 0 195 -43 195 -360zM350 350
c0 228 -51 300 -115 300c-63 0 -115 -69 -115 -300c0 -237 59 -300 115 -300c55 0 115 62 115 300z" />
    <glyph glyph-name="Ocircumflex" unicode="&#xd4;" 
d="M408 750h-102l-71 67l-71 -67h-102l138 120h70zM430 350c0 -317 -105 -360 -195 -360s-195 41 -195 360c0 317 110 360 195 360c86 0 195 -43 195 -360zM350 350c0 228 -51 300 -115 300c-63 0 -115 -69 -115 -300c0 -237 59 -300 115 -300c55 0 115 62 115 300z" />
    <glyph glyph-name="Oacute" unicode="&#xd3;" 
d="M386 870l-124 -120h-82l93 120h113zM430 350c0 -317 -105 -360 -195 -360s-195 41 -195 360c0 317 110 360 195 360c86 0 195 -43 195 -360zM350 350c0 228 -51 300 -115 300c-63 0 -115 -69 -115 -300c0 -237 59 -300 115 -300c55 0 115 62 115 300z" />
    <glyph glyph-name="Ograve" unicode="&#xd2;" 
d="M286 750h-82l-124 120h113zM430 350c0 -317 -105 -360 -195 -360s-195 41 -195 360c0 317 110 360 195 360c86 0 195 -43 195 -360zM350 350c0 228 -51 300 -115 300c-63 0 -115 -69 -115 -300c0 -237 59 -300 115 -300c55 0 115 62 115 300z" />
    <glyph glyph-name="Ntilde" unicode="&#xd1;" horiz-adv-x="520" 
d="M410 795c-27 -17 -50 -26 -73 -26c-60 0 -96 36 -147 36c-23 0 -49 -10 -80 -30v80c31 18 59 28 87 28c60 0 97 -34 144 -34c19 0 42 9 69 25v-79zM440 0h-69l-155 377c-30 73 -68 182 -68 182s12 -107 12 -200v-359h-80v700h74l152 -362c35 -83 66 -190 66 -190
s-12 120 -12 208v344h80v-700z" />
    <glyph glyph-name="Eth" unicode="&#xd0;" horiz-adv-x="490" 
d="M440 350c0 -300 -106 -350 -253 -350h-107v342h-60v68h60v290h102c138 0 258 -38 258 -350zM360 350c0 233 -60 281 -164 281h-36v-221h100v-68h-100v-273h33c113 0 167 48 167 281z" />
    <glyph glyph-name="Idieresis" unicode="&#xcf;" horiz-adv-x="242" 
d="M250 805c0 -30 -24 -55 -54 -55s-54 25 -54 55s24 55 54 55s54 -25 54 -55zM101 805c0 -30 -24 -55 -54 -55s-54 25 -54 55s24 55 54 55s54 -25 54 -55zM162 0h-82v700h82v-700z" />
    <glyph glyph-name="Icircumflex" unicode="&#xce;" horiz-adv-x="242" 
d="M294 750h-102l-71 67l-71 -67h-102l138 120h70zM162 0h-82v700h82v-700z" />
    <glyph glyph-name="Iacute" unicode="&#xcd;" horiz-adv-x="242" 
d="M285 870l-124 -120h-82l93 120h113zM162 0h-82v700h82v-700z" />
    <glyph glyph-name="Igrave" unicode="&#xcc;" horiz-adv-x="242" 
d="M162 750h-82l-124 120h113zM162 0h-82v700h82v-700z" />
    <glyph glyph-name="Edieresis" unicode="&#xcb;" horiz-adv-x="390" 
d="M357 805c0 -30 -24 -55 -54 -55s-54 25 -54 55s24 55 54 55s54 -25 54 -55zM188 805c0 -30 -24 -55 -54 -55s-54 25 -54 55s24 55 54 55s54 -25 54 -55zM360 0h-280v700h280v-73h-200v-217h180v-68h-180v-269h200v-73z" />
    <glyph glyph-name="Ecircumflex" unicode="&#xca;" horiz-adv-x="390" 
d="M386 750h-102l-71 67l-71 -67h-102l138 120h70zM360 0h-280v700h280v-73h-200v-217h180v-68h-180v-269h200v-73z" />
    <glyph glyph-name="Eacute" unicode="&#xc9;" horiz-adv-x="390" 
d="M376 870l-124 -120h-82l93 120h113zM360 0h-280v700h280v-73h-200v-217h180v-68h-180v-269h200v-73z" />
    <glyph glyph-name="Egrave" unicode="&#xc8;" horiz-adv-x="390" 
d="M276 750h-82l-124 120h113zM360 0h-280v700h280v-73h-200v-217h180v-68h-180v-269h200v-73z" />
    <glyph glyph-name="Ccedilla" unicode="&#xc7;" horiz-adv-x="360" 
d="M340 10c0 0 -46 -17 -91 -20c13 -18 28 -47 28 -80c0 -79 -58 -100 -106 -100c-38 0 -78 17 -78 17v62s40 -16 69 -16s43 12 43 45c0 29 -11 60 -18 78c-74 21 -137 101 -137 354c0 310 120 360 201 360c58 0 89 -20 89 -20v-69s-37 20 -92 20c-57 0 -118 -63 -118 -291
c0 -214 44 -289 108 -289c46 0 102 21 102 21v-72z" />
    <glyph glyph-name="Aring" unicode="&#xc5;" horiz-adv-x="460" 
d="M348 813c0 -74 -52 -102 -118 -102s-118 26 -118 102c0 75 53 102 118 102c60 0 118 -28 118 -102zM450 0h-88l-35 166h-194l-35 -166h-88l173 700h94zM288 813c0 39 -23 55 -58 55c-36 0 -58 -15 -58 -55c0 -41 24 -55 58 -55c33 0 58 14 58 55zM314 234l-53 254
c-14 68 -31 165 -31 165s-17 -97 -31 -165l-53 -254h168z" />
    <glyph glyph-name="Adieresis" unicode="&#xc4;" horiz-adv-x="460" 
d="M369 805c0 -30 -24 -55 -54 -55s-54 25 -54 55s24 55 54 55s54 -25 54 -55zM200 805c0 -30 -24 -55 -54 -55s-54 25 -54 55s24 55 54 55s54 -25 54 -55zM450 0h-88l-35 166h-194l-35 -166h-88l173 700h94zM314 234l-53 254c-14 68 -31 165 -31 165s-17 -97 -31 -165
l-53 -254h168z" />
    <glyph glyph-name="Atilde" unicode="&#xc3;" horiz-adv-x="460" 
d="M380 795c-27 -17 -50 -26 -73 -26c-60 0 -96 36 -147 36c-23 0 -49 -10 -80 -30v80c31 18 59 28 87 28c60 0 97 -34 144 -34c19 0 42 9 69 25v-79zM450 0h-88l-35 166h-194l-35 -166h-88l173 700h94zM314 234l-53 254c-14 68 -31 165 -31 165s-17 -97 -31 -165l-53 -254
h168z" />
    <glyph glyph-name="Acircumflex" unicode="&#xc2;" horiz-adv-x="460" 
d="M403 750h-102l-71 67l-71 -67h-102l138 120h70zM450 0h-88l-35 166h-194l-35 -166h-88l173 700h94zM314 234l-53 254c-14 68 -31 165 -31 165s-17 -97 -31 -165l-53 -254h168z" />
    <glyph glyph-name="Aacute" unicode="&#xc1;" horiz-adv-x="460" 
d="M396 870l-124 -120h-82l93 120h113zM450 0h-88l-35 166h-194l-35 -166h-88l173 700h94zM314 234l-53 254c-14 68 -31 165 -31 165s-17 -97 -31 -165l-53 -254h168z" />
    <glyph glyph-name="Agrave" unicode="&#xc0;" horiz-adv-x="460" 
d="M268 750h-82l-124 120h113zM450 0h-88l-35 166h-194l-35 -166h-88l173 700h94zM314 234l-53 254c-14 68 -31 165 -31 165s-17 -97 -31 -165l-53 -254h168z" />
    <glyph glyph-name="mu" unicode="&#xb5;" horiz-adv-x="500" 
d="M420 0h-63l-11 51c-19 -18 -72 -61 -131 -61c-19 0 -38 2 -55 7v-187h-80v720h80v-385c0 -68 23 -84 65 -84c46 0 95 34 115 48v421h80v-530z" />
    <glyph glyph-name="plusminus" unicode="&#xb1;" horiz-adv-x="550" 
d="M480 310h-165v-150h-80v150h-165v80h165v170h80v-170h165v-80zM480 0h-410v80h410v-80z" />
    <glyph glyph-name="degree" unicode="&#xb0;" horiz-adv-x="374" 
d="M334 535c0 -129 -67 -175 -147 -175c-78 0 -147 41 -147 175c0 129 72 175 147 175c78 0 147 -42 147 -175zM264 535c0 89 -29 123 -77 123c-45 0 -77 -30 -77 -123c0 -86 29 -120 77 -120c43 0 77 30 77 120z" />
    <glyph glyph-name="registered" unicode="&#xae;" horiz-adv-x="730" 
d="M680 315c0 -222 -131 -355 -315 -355c-191 0 -315 129 -315 355c0 221 130 355 315 355c189 0 315 -135 315 -355zM610 315c0 178 -82 290 -245 290c-162 0 -245 -110 -245 -290c0 -179 83 -290 245 -290c163 0 245 112 245 290zM504 137h-83l-16 60c-9 34 -24 72 -45 89
l-37 -2v-147h-70v370h91c77 0 150 -14 150 -109c0 -50 -28 -77 -72 -96c25 -23 40 -54 53 -88zM423 398c0 49 -18 58 -78 58h-22v-126c82 4 100 22 100 68z" />
    <glyph glyph-name="logicalnot" unicode="&#xac;" horiz-adv-x="600" 
d="M530 129h-80v171h-380v80h460v-251z" />
    <glyph glyph-name="copyright" unicode="&#xa9;" horiz-adv-x="730" 
d="M680 315c0 -222 -131 -355 -315 -355c-191 0 -315 129 -315 355c0 221 130 355 315 355c189 0 315 -135 315 -355zM610 315c0 178 -82 290 -245 290c-162 0 -245 -110 -245 -290c0 -179 83 -290 245 -290c163 0 245 112 245 290zM461 134c0 0 -35 -16 -85 -16
c-66 0 -157 32 -157 199c0 172 108 197 164 197c47 0 78 -16 78 -16v-56s-38 15 -78 15s-89 -10 -89 -140c0 -114 41 -138 82 -138s85 14 85 14v-59z" />
    <glyph glyph-name="brokenbar" unicode="&#xa6;" horiz-adv-x="240" 
d="M160 420h-80v390h80v-390zM160 -110h-80v390h80v-390z" />
    <glyph glyph-name="minus" unicode="&#x2212;" horiz-adv-x="500" 
d="M430 305h-360v75h360v-75z" />
    <glyph glyph-name="threesuperior" unicode="&#xb3;" horiz-adv-x="294" 
d="M259 403c0 -110 -64 -135 -131 -135c-40 0 -81 13 -81 13v56s48 -13 77 -13c48 0 67 19 67 79s-35 72 -79 72h-41v55h41c33 0 69 16 69 69c0 46 -21 55 -51 55c-35 0 -83 -17 -83 -17v55s36 18 87 18s115 -15 115 -108c0 -47 -24 -82 -65 -95c48 -14 75 -47 75 -104z" />
    <glyph glyph-name="twosuperior" unicode="&#xb2;" horiz-adv-x="294" 
d="M259 339l-9 -61h-209v54l90 122c31 42 55 73 55 129c0 55 -21 68 -61 68c-31 0 -83 -16 -83 -16v56s37 19 87 19c61 0 125 -21 125 -128c0 -68 -31 -111 -69 -161l-63 -82h137z" />
    <glyph glyph-name="onesuperior" unicode="&#xb9;" horiz-adv-x="294" 
d="M193 278h-68v348l-84 -35v60l104 49h48v-422z" />
    <glyph glyph-name="threequarters" unicode="&#xbe;" horiz-adv-x="778" 
d="M773 154l-9 -62h-52v-92h-68v92h-147v46l53 284h74l-54 -268h75l8 148h59v-148h61zM604 810l-360 -920h-70l360 920h70zM259 403c0 -110 -64 -135 -131 -135c-40 0 -81 13 -81 13v56s48 -13 77 -13c48 0 67 19 67 79s-35 72 -79 72h-41v55h41c33 0 69 16 69 69
c0 46 -21 55 -51 55c-35 0 -83 -17 -83 -17v55s36 18 87 18s115 -15 115 -108c0 -47 -24 -82 -65 -95c48 -14 75 -47 75 -104z" />
    <glyph glyph-name="onehalf" unicode="&#xbd;" horiz-adv-x="778" 
d="M743 61l-9 -61h-209v54l90 122c31 42 55 73 55 129c0 55 -21 68 -61 68c-31 0 -83 -16 -83 -16v56s37 19 87 19c61 0 125 -21 125 -128c0 -68 -31 -112 -69 -161l-63 -82h137zM604 810l-360 -920h-70l360 920h70zM193 278h-68v348l-84 -35v60l104 49h48v-422z" />
    <glyph glyph-name="onequarter" unicode="&#xbc;" horiz-adv-x="778" 
d="M773 154l-9 -62h-52v-92h-68v92h-147v46l53 284h74l-54 -268h75l8 148h59v-148h61zM604 810l-360 -920h-70l360 920h70zM193 278h-68v348l-84 -35v60l104 49h48v-422z" />
    </font>
</defs>
</svg>
